<?xml version="1.0" standalone="no"?>
<!DOCTYPE svg PUBLIC "-//W3C//DTD SVG 1.1//EN" "http://www.w3.org/Graphics/SVG/1.1/DTD/svg11.dtd">
<svg xmlns="http://www.w3.org/2000/svg">
<defs >
<font id="PermanentMarker" horiz-adv-x="517" ><font-face
    font-family="Permanent Marker"
    units-per-em="1024"
    panose-1="2 0 0 0 0 0 0 0 0 0"
    ascent="1136"
    descent="-325"
    alphabetic="0" />
<glyph unicode=" " glyph-name="space" horiz-adv-x="379" />
<glyph unicode="!" glyph-name="exclam" horiz-adv-x="267" d="M276 688Q276 679 274 666T269 640T268 617T277 603Q259 550 253 514T242 446T230 377T205 289Q194 257 178 245T144 232T107 242T72 264Q69 283 71 310T78 368T86 425T92 472Q102 483 106 490T111
505T114 525T119 559Q121 570 118 578T116 595Q118 599 122 601T128 608Q132 621 130 628T133 647Q138 655 145 672T151 709Q160 716 168 725T184 741T203 754T229 759Q237 748 241 738T248 719T258 702T276 688ZM177 119Q179 111 180 104T182 89Q176 68 169 51Q166
44 165 42T164 39T165 37T166 28L161 16Q156 9 150 5T136 -2Q133 -4 130 -5T124 -9L121 -21L107 -23Q91 -27 78 -27H67Q55 -16 48 -10T32 1Q21 20 19 34Q17 47 14 51L0 65L12 74L0 93Q12 102 18 106T28 114T38 126T54 149L63 162L75 155Q80 152 93 150T117 145Q133
140 148 138T173 127L177 119Z" />
<glyph unicode="&quot;" glyph-name="quotedbl" horiz-adv-x="504" d="M254 739Q266 729 277 721T297 704T310 684T313 655Q305 646 294 622T267 551Q259 528 252 489T234 407T208 327T170 272Q161 275 151 277T133 283T121 294T117 316Q94 329 88 347T82 386T86
427T87 465Q97 506 108 553T129 645Q138 654 143 667T153 697T161 728T174 758Q179 753 191 753T206 760Q212 750 228 744T254 739ZM437 759Q452 753 468 746T499 731T526 712T545 686Q537 651 523 618T496 553T475 490T472 427Q470 424 466 425T460 422Q454 399
446 372T437 315Q428 310 420 304T413 287Q402 282 389 277T365 271T344 276T334 303Q324 305 321 312T316 327T311 343T297 355Q311 436 322 483T341 556Q350 585 356 596Q361 617 366 634T377 668T388 704T400 747Q408 752 415 757T437 759Z" />
<glyph unicode="#" glyph-name="numbersign" horiz-adv-x="720" d="M638 286Q661 281 665 273T662 256T642 236T617 219Q606 221 594 216T570 203Q557 205 544 205T516 205Q509 185 501 167T478 135Q477 130 480 126T486 117Q475 108 471 98T465 77T463 56T458
37Q449 33 442 27T429 15T414 5T394 -2Q373 5 360 11T330 26Q316 44 315 64T319 104T335 142T354 174Q361 188 366 199Q343 200 320 199T271 194Q265 177 257 162T236 134Q235 129 239 125T245 116Q234 107 230 97T224 77T221 56T216 37Q207 33 201 27T187 15T172
5T152 -2Q131 5 119 11T88 26Q74 43 73 63T78 104T94 142T113 174Q101 174 89 174T64 172Q49 180 42 192T33 217T30 245T31 273Q35 284 44 290T65 301Q95 302 119 303T166 307Q167 309 167 312T169 317Q168 331 175 353T193 402Q176 399 164 397T144 393Q120 394
109 400T91 414T83 433T77 456Q85 464 87 478T81 499Q91 501 99 510T105 525Q136 530 169 530T232 534Q243 554 251 586T270 651T296 709T336 739Q366 711 381 680T407 605Q404 595 398 580T384 545Q408 546 432 546T479 547Q488 569 496 600T514 660T540 712T578
739Q607 712 623 680T648 605Q645 595 639 579T624 541Q640 540 655 538T682 531T701 519T709 499Q727 497 733 492T740 480T737 465T730 448Q702 436 663 430T578 420Q567 388 559 363T550 324H594Q593 315 601 311T618 305T634 299T638 286ZM307 318Q327 320
354 321T410 323Q412 339 420 364T440 416Q410 416 384 416T335 415Q324 384 317 360T308 323L307 318Z" />
<glyph unicode="$" glyph-name="dollar" horiz-adv-x="505" d="M414 306Q416 285 417 268T411 234Q396 198 366 171T298 124Q296 117 294 110T293 100Q282 91 277 80T270 58T267 36T262 16Q254 12 247 6T234 -6T219 -17T200 -24Q180 -17 169 -10T141 6Q130 21
129 39T131 74Q122 75 113 75T96 75Q90 80 85 86T77 100Q73 100 73 104T69 109Q75 117 75 118T72 120T68 122T67 127Q71 133 70 142T68 160T69 178T82 192Q114 189 142 194T195 210T244 232T289 253Q294 268 306 275T324 298Q325 304 321 305T316 311Q289 323 266
329T228 344Q218 339 210 341T187 346Q155 348 126 352T69 367Q67 372 65 375T55 377Q50 384 44 390T33 404Q35 414 36 421T31 435Q34 446 36 453T36 471Q43 489 57 502T88 524T124 538T159 549Q185 561 215 570T278 588Q285 612 292 638T310 688T333 729T365 751Q391
722 404 690T425 614Q446 614 468 612T513 602Q516 594 521 587T533 572T543 557T549 541Q558 533 563 525T566 501Q557 495 548 489T529 478Q494 486 460 484T396 480Q387 488 376 488T352 484T327 478T303 476Q294 469 281 467T252 463Q251 458 253 457T254 451Q259
445 268 443T287 438T304 432T315 419Q328 419 338 413T355 399T365 380T368 363Q371 356 374 357T383 354Q386 343 397 332T414 306Z" />
<glyph unicode="%" glyph-name="percent" horiz-adv-x="659" d="M455 557Q468 565 484 581T519 616T556 655T594 690T631 715T665 723Q673 688 668 654T645 576Q634 565 614 547T569 506T518 459T469 412T428 371T403 342Q386 327 359 301T301 246T242 189T195
143Q193 138 196 135T199 126Q187 116 184 108T180 91T179 75T177 56Q169 50 163 43T150 28T137 14T118 2Q98 3 86 6T57 13Q43 26 42 46T44 87T57 128T74 164Q84 187 95 196T108 213Q117 223 140 245T192 292T246 340T287 378Q296 394 322 419T376 470T428 519T455
557ZM300 680Q298 675 297 670T290 661Q295 650 294 648Q306 628 315 607T337 566Q335 554 341 543T349 521Q351 507 346 490T329 466Q322 458 312 453T294 440Q288 436 282 435T268 432Q257 425 239 419T209 415Q194 410 180 408T146 410Q109 405 85 424T50 471Q46
500 52 523T69 567T95 604T123 637Q129 635 131 640T139 647Q143 655 149 658T160 669Q169 671 173 677T186 685Q196 695 200 700T210 713Q215 713 217 713T226 714Q230 721 233 724T243 732Q249 729 256 728T269 722Q269 717 272 714T278 709T283 704T287 697Q295
691 296 689T300 680ZM228 537Q231 547 231 547T230 550Q226 556 223 563T216 576Q210 570 204 574Q199 569 194 565T183 555Q177 547 173 542T167 527Q174 522 184 524T202 526Q210 528 216 531T228 537ZM592 176Q590 164 595 154T603 132Q605 118 600 101T584
77Q577 68 567 63T548 50Q542 47 536 46T522 42Q511 36 494 30T463 25Q448 20 434 18T400 20Q363 15 340 34T305 82Q301 110 307 133T324 177T349 214T378 247Q383 245 386 250T394 257Q397 265 404 268T415 280Q423 282 428 287T441 295Q450 305 454 310T465 323Q470
324 472 324T480 324Q485 332 488 335T497 343Q503 339 510 339T523 332Q524 321 532 319T542 307Q549 301 551 299T555 290Q553 285 551 280T544 272Q550 261 548 259Q560 239 569 218T592 176ZM483 148Q485 157 485 161Q480 167 478 174T471 187Q466 182 464
182T459 184Q453 179 448 175T437 166Q432 157 427 152T422 138Q429 132 439 134T457 136Q465 138 470 141T483 148Z" />
<glyph unicode="&amp;" glyph-name="ampersand" horiz-adv-x="614" d="M561 318Q576 317 582 312T591 299T593 283T592 265Q577 255 555 249T505 238T449 233T390 231Q385 203 378 171T355 95Q341 64 323 52T286 39T246 48T208 70Q204 96 207 122T216 188Q210
200 200 204T179 209T157 208T143 204Q124 205 104 213T64 231T31 254T9 279Q14 287 12 302T0 324Q8 326 11 336T12 351Q28 355 37 370T60 404T96 438T164 461Q193 444 210 434T239 419Q251 413 257 411Q258 415 263 417T270 424Q274 437 272 444T276 463Q281 471
289 483T296 515Q306 522 314 530T332 546T353 559T382 565Q391 554 395 544T403 525T413 508T433 493Q434 484 431 471T426 446T425 423T435 409Q425 383 420 366Q437 363 459 363T501 359T537 347T561 318ZM139 323Q139 314 154 314Q158 314 162 314T172 316Q177
317 182 318Q177 324 172 328Q167 332 163 335T154 339Q150 339 145 332T139 323Z" />
<glyph unicode="&apos;" glyph-name="quotesingle" horiz-adv-x="272" d="M254 739Q266 729 277 721T297 704T310 684T313 655Q305 646 294 622T267 551Q259 528 252 489T234 407T208 327T170 272Q161 275 151 277T133 283T121 294T117 316Q94 329 88 347T82 386T86
427T87 465Q97 506 108 553T129 645Q138 654 143 667T153 697T161 728T174 758Q179 753 191 753T206 760Q212 750 228 744T254 739Z" />
<glyph unicode="(" glyph-name="parenleft" horiz-adv-x="370" d="M276 474L240 429L239 401Q227 376 218 348T200 285Q191 247 190 206T193 123T207 43T228 -28Q225 -32 223 -43T219 -68T217 -92T218 -109L225 -120Q229 -122 230 -127T232 -136Q234 -161 219
-184Q199 -181 182 -175T149 -161Q138 -137 126 -122T101 -93Q90 -81 80 -68T58 -35Q54 -2 48 25T34 81L31 92Q33 129 35 167T35 234Q37 242 37 251T39 271Q39 275 39 283T40 295L62 297L55 329L66 341L70 359Q73 416 86 458T123 542L131 557Q148 580 165 606T204
662Q239 700 265 727T319 771L328 782Q347 800 360 811T385 834Q396 844 405 852T423 865Q437 855 450 857T471 862Q483 849 483 840T479 815Q476 802 474 785T479 748Q474 737 471 726T463 702Q459 690 456 685T450 676T442 669T431 657Q408 648 385 629T341 586T305
537T282 491L276 474Z" />
<glyph unicode=")" glyph-name="parenright" horiz-adv-x="370" d="M329 589Q327 551 325 513T325 447Q323 438 323 429T321 410Q321 406 321 398T320 386L298 383L305 352L294 340L290 322Q287 265 274 223T237 138L229 124Q212 101 195 75T156 18Q121 -20 95
-46T41 -90L32 -101Q13 -119 0 -130T-25 -153Q-36 -163 -45 -171T-63 -184Q-77 -174 -90 -176T-111 -181Q-123 -169 -123 -160T-119 -135Q-116 -121 -114 -104T-119 -67Q-114 -56 -111 -45T-103 -21Q-99 -9 -96 -4T-90 5T-82 12T-71 24Q-49 33 -25 52T19 95T55
143T78 189L84 207L119 252L121 280Q144 327 160 396Q169 433 169 474T166 557T152 638T132 709Q135 713 137 724T141 749T143 773T142 790L135 800Q131 803 130 807T128 817Q126 842 141 865Q160 862 177 856T211 842Q222 818 234 803T259 774Q270 761 280 749T302
716Q306 683 312 656T326 600L329 589Z" />
<glyph unicode="*" glyph-name="asterisk" horiz-adv-x="690" d="M684 526Q702 525 710 521T720 509T721 494T718 477Q686 461 634 454T522 444Q528 427 539 407T557 368T564 329T548 295Q554 281 553 272T545 258T530 248T512 240Q481 256 450 296T389 382Q366
342 354 319T339 284Q324 267 311 259T285 249T259 246T230 245Q226 253 211 257T183 257Q188 265 182 273T168 280Q176 297 187 314T210 349T231 382T244 413Q246 417 249 420T255 428Q218 423 196 419T163 411Q139 412 126 417T105 430T92 449T79 470Q85 478
84 491T72 512Q81 514 86 523T89 537Q109 541 131 542T176 545T218 550T253 559H273Q253 585 240 599T219 619Q210 637 210 650T215 673T228 694T244 716Q254 717 267 726T283 747Q288 741 300 742T316 749Q328 736 339 720T360 689T381 660T405 638Q420 648 434
665T463 696T495 718T531 724Q543 737 552 741T569 744T585 738T601 729Q599 699 575 656T519 568Q540 566 566 566T616 563T659 552T684 526Z" />
<glyph unicode="+" glyph-name="plus" horiz-adv-x="593" d="M510 298Q525 296 531 291T540 279T542 262T541 244Q526 234 504 228T454 218T398 213T339 210Q334 182 327 151T304 74Q290 43 272 31T235 18T195 27T157 49Q155 62 156 80T159 118T164 159T171 200Q139
195 120 191T92 184Q73 185 62 191T44 205T32 225T20 248Q24 256 22 271T10 294Q18 295 22 305T22 321Q38 325 56 326T93 329T127 332T155 341Q169 341 181 341T208 342Q211 355 207 364T205 380Q207 385 212 386T219 393Q223 406 221 413T225 433Q230 441 238
458T245 494Q255 501 263 510T281 526T302 539T331 545Q340 534 344 524T352 505T362 488T382 473Q382 464 379 451T374 425T373 402T383 388Q379 377 376 367T369 346Q386 343 408 343T450 339T486 327T510 298Z" />
<glyph unicode="," glyph-name="comma" horiz-adv-x="209" d="M9 149Q15 144 29 138T60 125T90 113T110 107Q121 87 122 72T127 39Q122 34 121 23T119 6Q118 -2 115 -3T110 -12Q109 -14 111 -18T112 -24Q111 -29 108 -29T102 -35Q98 -46 97 -48T95 -51T93 -53T86
-65Q79 -80 69 -94T56 -123Q42 -135 22 -153T-17 -179Q-26 -175 -45 -166T-82 -146T-109 -122T-107 -98Q-89 -79 -76 -53T-52 4T-35 67T-20 130Q-16 126 -12 127T-4 132T3 141T9 149Z" />
<glyph unicode="-" glyph-name="hyphen" horiz-adv-x="624" d="M520 298Q535 296 541 291T550 279T552 262T551 244Q526 227 482 221T390 212T297 209T226 206Q172 200 143 195T102 184Q83 185 72 191T54 205T42 225T30 248Q34 256 32 271T20 294Q28 295 32 305T32
321Q48 325 66 326T103 329T137 332T166 341Q216 342 269 344T370 348Q387 343 410 343T455 340T495 328T520 298Z" />
<glyph unicode="." glyph-name="period" horiz-adv-x="234" d="M146 119Q148 111 149 104T152 89Q148 79 145 70T139 51Q136 44 135 42T134 39T134 37T135 28L131 16Q126 9 119 5T105 -2Q103 -4 99 -5T93 -9L90 -21L77 -23Q60 -27 48 -27H36Q24 -16 17 -10T2 1Q-8
15 -9 21T-12 34Q-14 47 -17 51L-31 65L-19 74L-30 93Q-18 102 -12 106T-2 114T7 126T23 149L32 162L45 155Q49 152 62 150T86 145Q103 140 118 138T142 127L146 119Z" />
<glyph unicode="/" glyph-name="slash" horiz-adv-x="411" d="M290 561Q308 574 329 603T373 662T421 712T471 731Q487 695 488 660T481 579Q472 568 455 549T418 507T375 458T334 410T300 368T280 338Q266 323 243 296T194 239T146 181T107 133Q106 128 110 124T116
115Q105 105 103 97T102 79T105 62T106 43Q99 37 95 29T86 14T75 -1T58 -13Q37 -11 24 -8T-7 -1Q-24 13 -30 33T-36 75T-31 118T-21 156Q-10 163 -20 166Q-16 180 -6 189T4 206Q11 217 31 239T74 288T120 338T154 377Q160 393 181 418T226 471T269 522T290 561Z"
/>
<glyph unicode="0" glyph-name="zero" horiz-adv-x="703" d="M224 -17Q185 -23 152 -13T94 19T49 71T18 135Q10 206 23 264T60 371T116 462T176 544Q182 541 186 544T193 553T200 563T210 570Q214 579 220 585T232 598T245 610T255 625Q264 627 271 632T284 644T296
655T312 664V677Q332 688 341 700T363 732Q373 734 379 734T396 735Q405 752 412 761T433 781Q446 773 462 771T489 755Q490 742 495 735T508 723T521 711T529 693Q533 693 534 695T540 696Q542 687 544 682T548 673T552 664T557 651Q552 639 549 625T534 606Q534
598 539 597T546 589Q546 579 543 573Q569 524 589 471T636 369Q634 354 637 340T645 313T654 286T661 259Q663 241 662 221T655 181T640 146T619 122Q617 123 608 117T588 100T564 78T543 57Q531 49 517 46T487 38Q475 30 459 22T425 7T390 -2T360 -4Q327 -18
297 -22T224 -17ZM246 361Q238 337 227 318T206 279T188 237T179 184Q195 167 217 163T263 162T310 170T352 176Q352 185 359 184Q392 188 421 208T483 250Q487 263 493 272T500 298Q496 309 495 314T494 333Q473 371 458 415T422 498Q420 493 415 488T404 490Q399
470 387 472T363 484Q335 455 307 428T257 364Q253 361 252 362T246 361Z" />
<glyph unicode="1" glyph-name="one" horiz-adv-x="330" d="M179 724Q190 702 207 689T242 661Q263 622 268 574T279 469Q279 423 273 383T258 304T236 227T213 147Q199 132 192 105T190 51Q177 35 164 20T135 -8Q129 -2 120 -2T100 -1T82 -3T69 -4Q64 4 56 13T41
32T31 51T32 70Q32 81 20 81Q23 127 35 171T62 258T91 343T113 426T118 508T94 591Q94 605 94 614T93 631T91 646T87 661Q92 675 94 687T94 709Q95 716 98 720T105 729T112 738T117 750H139Q150 741 158 734T179 724Z" />
<glyph unicode="2" glyph-name="two" horiz-adv-x="666" d="M703 174Q727 162 727 144T717 111T687 87T653 88Q651 80 645 78T636 68Q539 53 438 31T236 -2Q158 1 106 21Q85 39 75 66T62 123T64 181T76 231Q128 297 184 357T313 465Q334 491 362 509T413 551Q383
562 350 562T285 557T225 543T176 531Q160 539 139 540T96 548Q84 558 80 574T74 607T73 639T69 665Q77 678 83 691T99 715Q146 728 203 736T318 744T430 730T526 685Q531 657 547 641T586 615Q597 595 605 575T616 531Q596 478 560 442T486 375Q466 358 443 346T403
318Q399 314 398 308T393 298Q375 282 353 270T313 241Q300 230 292 217T269 194Q287 188 304 189T340 193T378 199T419 201Q448 211 483 218T553 224Q583 236 610 241T663 244Q676 239 682 226T703 208Q700 197 701 192T703 174Z" />
<glyph unicode="3" glyph-name="three" horiz-adv-x="575" d="M36 680Q91 691 145 702T253 722T365 733T485 730Q510 704 529 674T565 610Q563 603 563 596T560 581Q555 568 547 558T533 533Q508 519 486 503T441 470Q423 462 404 456T374 431Q407 417 432 397T476
352T509 298T534 238Q532 223 529 207T529 180Q522 159 511 147T488 113Q453 98 431 71Q421 71 421 75Q390 54 349 40T261 17T162 8T58 12Q54 15 51 19T39 22Q35 32 29 39T18 57Q28 73 31 94T39 134T52 169T79 192Q87 193 88 187T94 179Q133 179 172 180T246 187T311
204T364 235Q334 259 294 271T217 296T150 326T112 381Q117 404 119 422T124 455T133 483T155 510Q150 513 141 512T120 507T99 499T81 491Q60 496 39 497T-1 510Q-3 521 -6 534T-10 562T-8 590T6 616Q4 623 3 630T-1 642Q10 651 22 660T36 680Z" />
<glyph unicode="4" glyph-name="four" horiz-adv-x="596" d="M551 499Q557 482 563 469T586 446Q582 423 584 408T579 371Q565 356 546 347T506 332T465 318T427 299Q414 259 400 220T374 134Q376 129 381 127T389 121Q384 107 388 99T399 83T413 69T424 53Q420
44 419 35T418 17T415 -1T405 -19Q385 -27 365 -27T327 -32Q306 -27 292 -12T268 24T254 65T246 102Q252 113 243 112Q239 126 244 139T246 159Q248 184 254 211T268 274Q255 277 240 279T210 283T183 286T165 287Q150 291 139 299T119 318T102 340T84 361Q81 396
74 432T61 502T52 566T55 620Q65 635 75 649T99 673Q110 670 116 663T128 647T140 631T158 620Q162 601 170 585T186 551T199 516T205 474Q215 459 226 456T251 453T277 455T305 452Q308 457 315 457T327 461Q333 463 333 471T342 480Q340 497 342 513T347 545T350
574T346 602Q356 621 358 647T364 699T377 744T411 773Q471 722 495 636Q485 594 484 558T483 486Q500 491 518 494T551 499Z" />
<glyph unicode="5" glyph-name="five" horiz-adv-x="594" d="M631 672Q637 664 643 652T644 630Q662 612 672 586T670 529Q647 521 630 517T592 506Q554 504 545 503T530 501T515 498T469 490Q469 494 469 495T467 495T464 493T459 493Q439 486 419 483T379 476T339
469T298 454Q300 449 304 447T312 442T321 436T327 428Q355 421 373 406T407 371T436 331T469 295Q469 289 472 286T473 275Q491 252 501 220T505 146Q492 114 474 92T427 45Q404 35 382 30T343 13Q335 18 329 18T317 19Q294 9 268 6T213 16Q192 15 171 17T131
27T101 46T84 78Q61 97 54 125T61 181Q67 183 70 184T80 191Q133 186 188 183T307 191Q309 199 314 202T327 209T340 215T349 224Q349 230 346 232T340 237T335 243T333 253Q320 253 303 262T275 282Q231 290 188 312T103 353Q96 365 88 375T71 397T58 421T51 447Q52
463 53 477T55 506T58 536T64 570Q107 629 171 669T304 736Q315 725 326 713T349 689T374 670T405 661Q416 664 422 665T433 666T446 666T469 668Q484 670 498 670T524 671Q549 673 560 675T576 678T580 679T583 680T597 677T631 672Z" />
<glyph unicode="6" glyph-name="six" horiz-adv-x="513" d="M449 304Q459 298 465 289T478 272Q478 253 481 228T481 179Q461 147 437 119T378 73Q373 72 375 66T372 57Q364 57 360 53T349 54Q338 47 326 42T305 28Q296 29 289 27T275 23T261 18T247 18Q215 2
176 -8T93 -11Q63 -6 41 11T6 53T-10 111T-4 179Q-6 182 -6 187T-7 197T-7 207T-10 214Q-4 224 0 234T0 259Q5 260 7 264T10 275T13 286T19 294Q21 321 29 345T47 391T70 436T93 481Q89 489 90 491T93 503Q108 528 123 556T155 613T191 668T234 715Q250 718 265
725T295 737T325 743T359 737Q361 728 361 724T362 715Q378 707 380 689T385 654Q397 648 402 636T410 609Q398 597 388 586T366 567Q362 565 355 565T346 567Q316 554 294 533T255 484T227 427T208 368Q179 325 161 279T131 176Q132 168 139 169T154 169Q166 190
169 209T173 253Q184 272 197 289T221 326Q237 338 251 347T279 362T309 374T349 384Q373 382 390 374T420 355T439 330T449 304Z" />
<glyph unicode="7" glyph-name="seven" horiz-adv-x="590" d="M641 374Q642 369 637 366T628 359T621 353T624 345Q631 347 633 344T640 342Q639 340 637 335T640 329Q637 319 630 313T616 301T600 290T587 276Q552 271 537 269T509 264T480 259T430 250Q425 244
420 240T409 231T400 218T396 201Q384 193 376 181T360 156T344 130T326 106Q327 101 330 99T332 90Q320 84 315 70T304 40T290 13T261 -1Q248 3 239 4T222 6T204 6T183 5Q183 13 181 22T187 35Q182 48 168 51Q169 94 183 137T216 213Q196 210 185 209T165 206T145
205T116 206Q116 218 106 220T90 229Q88 240 80 247T63 259Q63 270 73 269Q71 279 68 289T77 306Q76 310 72 310T71 319Q84 351 108 362T161 377T221 382T280 398Q298 394 312 397T342 404Q344 423 353 441T367 478Q368 488 363 493T361 511Q342 529 321 536T277
546T229 550T179 557Q153 558 134 556T97 550T64 546T26 549Q29 555 29 559T26 568T19 577T10 591Q13 606 17 633T19 683Q26 684 28 686T30 691T31 697T36 705Q46 705 53 714T72 728Q93 729 101 730T115 732T127 736T151 741Q155 742 156 741T159 738T161 735T167
734Q186 736 199 736T223 737T245 734T271 727Q277 727 283 727T295 728T304 726T310 717Q329 719 343 717T371 711T399 700T434 687Q448 661 462 637T503 599Q504 594 502 593T500 586Q492 581 494 580T499 579T505 579T509 576Q509 572 507 571T503 566Q509 556
509 539T508 502T503 459T502 418Q528 413 537 412T553 410T571 410T613 410Q614 395 623 389T641 374Z" />
<glyph unicode="8" glyph-name="eight" horiz-adv-x="550" d="M524 733Q546 717 559 695T581 647T593 594T601 541Q591 506 567 474T510 423Q480 400 457 382T401 357Q393 349 386 343T372 326Q389 280 407 235T431 136Q419 129 418 115T417 85Q405 71 399 56T380
29Q377 27 374 28T367 28Q354 21 341 10T313 -5Q287 -12 261 -11T210 -3T164 16T127 46Q116 66 109 87T86 125Q81 157 81 201T94 288Q99 302 107 313T114 338Q119 339 121 342T129 347Q132 355 129 358T127 368Q112 389 98 411T73 458T61 509T70 567Q70 582 76
601T94 638T119 670T150 692Q150 699 153 700T157 709Q170 713 181 719T203 730T228 740T260 746Q292 748 325 742T382 722Q392 696 406 676T428 639Q430 624 432 613T434 590T431 568T420 541Q440 546 453 557T474 589Q474 606 465 618T451 645Q457 648 459 652T460
662T458 672T456 682Q462 684 464 682T469 683Q467 691 467 691T465 698Q469 703 475 708T486 707Q480 717 485 726T500 740Q505 738 510 736T524 733ZM287 163Q287 170 290 173T295 182Q283 207 272 224T234 258Q220 249 213 236T205 210T209 183T226 160Q236
163 254 160T287 163ZM262 453Q277 461 293 467T325 479T356 492T382 512Q344 512 320 525T296 571Q282 578 266 578T237 571T218 553T217 527Q215 522 210 522T205 514Q220 500 231 483T262 453Z" />
<glyph unicode="9" glyph-name="nine" horiz-adv-x="542" d="M509 594Q507 585 509 577T513 561T517 545T518 527Q522 517 528 509T540 494T549 477T552 455Q543 444 538 435T526 418T510 404T494 391Q486 368 479 354T463 316Q461 290 457 269T448 227T438 185T429
140Q428 98 416 61T380 -11Q362 -9 348 -11T315 -17Q307 -9 301 -2T287 12Q288 62 292 102T304 182T322 262T343 356Q329 357 311 355T272 349T231 341T192 333Q181 334 170 334T148 335T130 339T115 351Q99 347 88 352T69 367T56 389T44 411Q39 444 41 470T51
518T70 560T94 603Q120 629 151 656T220 704T299 737T389 745Q429 716 456 676T509 594ZM377 542Q378 561 367 568T340 579Q315 569 292 560T251 533Q248 530 244 529T235 527T229 521T229 510Q271 508 306 519T377 542Z" />
<glyph unicode=":" glyph-name="colon" horiz-adv-x="247" d="M146 119Q148 111 149 104T152 89Q148 79 145 70T139 51Q136 44 135 42T134 39T134 37T135 28L131 16Q126 9 119 5T105 -2Q103 -4 99 -5T93 -9L90 -21L77 -23Q60 -27 48 -27H36Q24 -16 17 -10T2 1Q-8
15 -9 21T-12 34Q-14 47 -17 51L-31 65L-19 74L-30 93Q-18 102 -12 106T-2 114T7 126T23 149L32 162L45 155Q49 152 62 150T86 145Q103 140 118 138T142 127L146 119ZM201 399Q199 384 198 377T196 364T197 348T203 320L206 304L191 301Q186 299 175 291T154 278Q140
270 127 261T101 250Q85 258 79 262T67 271Q62 281 58 290T49 308Q46 315 45 317T44 319T42 321T35 327L29 339Q28 354 35 370Q37 378 39 384L32 395L40 406Q47 416 50 420T58 430L67 438Q83 439 92 439T112 443Q129 439 134 436T145 428Q156 420 161 420H181L179
404L201 399Z" />
<glyph unicode=";" glyph-name="semicolon" horiz-adv-x="251" d="M40 149Q46 144 60 138T90 125T120 113T141 107Q152 87 153 72T158 39Q153 34 152 23T149 6Q148 -2 146 -3T141 -12Q140 -14 141 -18T143 -24Q141 -29 138 -29T132 -35Q128 -46 127 -48T125 -51T123
-53T117 -65Q110 -80 100 -94T87 -123Q80 -129 71 -137T53 -153T33 -169T14 -179Q5 -175 -14 -166T-51 -146T-78 -122T-76 -98Q-58 -79 -45 -53T-21 4T-4 67T11 130Q15 126 19 127T27 132T34 141T40 149ZM205 399Q203 384 202 377T200 364T200 348T206 320L210
304L195 301Q190 299 178 291T158 278Q143 270 131 261T104 250Q89 258 83 262T71 271Q61 288 53 308Q49 315 49 317T47 319T45 321T38 327L33 339Q31 347 33 355T38 370Q42 378 42 384L36 395L44 406Q51 416 54 420T62 430L71 438Q87 439 96 439T115 443L125 442Q133
439 138 436T149 428Q160 420 165 420H185L183 404L205 399Z" />
<glyph unicode="&lt;" glyph-name="less" horiz-adv-x="640" d="M586 478Q597 470 602 467T611 461T618 456T630 447Q625 436 625 430T626 419T628 407T629 391Q574 356 532 336T450 300T368 272T269 236Q292 222 328 212T401 188T468 154T508 102Q522 101 532
86T541 51Q531 45 523 38T501 26Q490 24 473 28T435 39T392 54T349 67Q329 72 306 76T262 88Q253 92 247 97T231 105Q213 108 193 116T151 135T110 155T71 173Q72 179 58 188T28 198Q28 210 19 219T4 241Q-7 269 12 294T69 324Q81 320 87 320T105 316Q123 328 148
339T198 346Q201 354 209 354T220 363Q261 370 300 385T376 417T447 452T514 484Q528 480 540 484T565 488Q562 485 564 484T570 483T578 482T586 478Z" />
<glyph unicode="=" glyph-name="equal" horiz-adv-x="601" d="M546 410Q560 408 565 403T570 391T567 376T561 358Q532 342 487 336T393 327T301 324T229 322Q175 316 144 311T100 300Q82 301 73 307T59 321T53 340T47 363Q54 371 56 385T51 406Q59 408 65 417T70
432Q88 436 106 437T143 440T177 443T208 451Q257 453 311 454T412 458Q427 453 449 453T493 450T529 439T546 410ZM488 217Q506 213 509 205T507 188T492 168T472 150Q463 152 453 147T435 135Q407 138 378 136T323 131Q318 131 318 127T314 122Q285 131 252 129T183
121T110 109T36 101Q25 109 20 120T12 145T10 173T11 201Q14 212 22 218T38 229Q63 230 83 232T121 236T158 240T199 243Q212 246 244 249Q271 251 320 253T454 255Q453 246 459 242T473 236T485 230T488 217Z" />
<glyph unicode="&gt;" glyph-name="greater" horiz-adv-x="650" d="M561 316Q561 304 570 295T585 273Q591 259 589 245T577 220T554 201T520 190Q508 195 502 194T484 198Q466 186 441 175T391 168Q388 160 380 160T369 151Q328 144 289 129T213 97T142 61T75
30Q61 34 49 30T24 26Q27 29 25 30T19 31T11 32T3 36Q-8 43 -13 47T-22 53T-30 58T-41 67Q-37 77 -37 83T-37 95T-39 107T-40 123Q15 158 57 178T139 214T221 242T320 278Q297 291 261 302T188 326T121 360T81 412Q67 413 57 428T48 463Q58 469 66 476T88 488Q99
490 116 486T154 475T197 460T240 447Q260 442 283 438T327 426Q336 422 342 417T358 409Q376 406 396 398T438 379T479 359T518 341Q517 335 531 326T561 316Z" />
<glyph unicode="?" glyph-name="question" horiz-adv-x="570" d="M604 689Q611 681 616 673T631 660Q626 635 628 613T631 564Q617 488 569 443T458 380Q458 370 452 366Q432 363 422 356T404 341T384 326T348 314Q343 303 335 300T318 296T301 291T289 274L232
221Q208 227 190 227T160 228T142 240T133 278Q134 288 140 291T149 303Q149 325 155 335T172 353T193 368T212 395Q228 402 247 417T283 448Q308 461 325 471T358 491T388 513T424 543Q419 556 406 557T375 557Q346 566 319 568T254 573Q240 572 234 571T214 571Q208
566 201 563T185 558T168 553T152 546Q132 551 120 565T91 587Q89 594 94 596T97 608Q87 613 87 616T81 624Q85 640 92 651T109 673T127 694T143 717Q159 721 170 729T193 748Q247 754 298 752T399 741T500 719T604 689ZM220 114Q218 99 217 92T215 79T216 64T222
36L225 20L211 17Q206 16 195 8T174 -5Q160 -13 148 -22T122 -32Q107 -24 101 -20T89 -12Q84 -3 80 6T71 24Q68 31 67 33T66 36T64 37T57 43L51 55Q50 63 52 70T57 85Q58 88 59 92T61 99L55 109L63 120Q69 131 72 135T80 144L89 151Q116 152 133 156Q150 153 155
150T165 142Q176 134 181 134H201L199 119L220 114Z" />
<glyph unicode="@" glyph-name="at" horiz-adv-x="750" d="M725 452Q731 414 729 376T717 295Q709 279 690 259T649 219T606 187T575 172Q557 169 540 171T508 178Q505 176 502 174T495 168Q485 166 469 165T442 157Q407 152 371 152T302 157Q294 162 287 165T269
170Q252 177 240 190T219 218T205 250T199 282Q204 307 219 326T250 365Q260 376 270 382T286 397Q299 401 308 408T327 421T345 434T368 446Q376 456 392 462T415 481Q420 477 425 479T435 484Q442 486 446 482T452 483Q456 478 458 478T464 476Q469 481 472 485T478
494L490 505L509 518L519 519L536 503Q538 501 541 496T545 483Q545 476 545 474T548 465V453Q547 448 547 445T547 434Q547 432 547 430T546 424Q533 385 527 355T523 310Q524 303 525 294T531 278T541 265T557 259Q565 260 574 265Q582 270 592 278T613 304L607
320Q613 330 615 340T617 360T617 383T619 409Q610 432 597 461T568 518T534 568T494 600Q489 602 487 601T482 598T476 596T467 598Q407 553 347 510T236 409Q188 366 150 307T92 171Q95 169 103 165Q115 160 126 158T148 152L184 132Q188 124 188 122Q211 114
231 111T270 100Q320 98 358 97T434 94Q468 94 495 98T549 106Q551 113 551 115T554 123Q563 117 572 105T591 80T609 55T627 37Q623 30 624 25T622 13Q598 -7 567 -14T499 -21T424 -20T348 -20Q328 -15 316 -14T287 -10Q256 -9 242 -4Q233 -2 224 -2T207 0Q182
7 163 20Q142 27 120 40T78 68T40 101T10 134Q10 150 8 161T3 183T-1 205T2 231Q-1 240 -4 248T-10 265Q-8 308 8 342T46 404T96 457T148 504Q153 499 155 502T168 504Q168 510 173 518T185 533T202 546T219 549Q229 568 249 581T291 607T329 636T350 676H369Q357
694 358 712T370 742T402 757T448 748Q454 747 457 748T464 752T469 756T476 759Q522 740 558 713T622 650Q621 648 619 647T614 644T612 640T615 635Q648 595 675 549T725 452ZM349 272Q368 270 387 271T427 275Q414 299 417 330Q418 334 418 337T419 343Q420
347 421 351T423 362Q414 357 406 352T392 340Q374 332 364 321T343 299Q344 294 343 292T339 286Q341 281 343 278T349 272Z" />
<glyph unicode="A" glyph-name="A" horiz-adv-x="719" d="M-26 95L-13 105L-12 126Q13 187 39 243T95 358Q104 377 113 396T132 435Q131 439 131 443T133 454Q147 474 155 490T172 523Q181 543 191 563T218 602L225 612L236 611Q240 613 244 614T256 616L274 613Q307
628 332 656T384 725L396 742L412 732Q417 729 428 726T451 719Q472 714 492 708T523 690L528 681Q530 670 531 661T535 643Q539 622 542 602T546 556Q551 536 555 516T564 475Q569 446 575 420T591 369Q601 369 603 368Q615 373 631 374L644 375L648 363Q650 360
653 357T660 351Q676 350 683 345T696 334Q698 332 701 330T706 326L724 319L714 300Q703 279 681 259T630 226Q632 219 632 213T635 199Q639 179 641 158T641 113Q631 87 618 67T586 30T544 3T496 -9Q482 -6 476 -2T464 6Q456 12 451 14L438 20L442 35Q445 43
442 49T427 65Q423 68 420 71T413 79L393 102L426 111Q456 119 466 131T474 176Q449 181 433 178T401 170Q378 164 356 160T308 155Q291 155 272 158L261 159L258 170Q258 172 256 174T251 179Q246 185 239 195T236 220Q229 231 228 243Q224 235 222 228T217 213L213
200L200 198Q198 196 197 192T196 186L200 175L190 166Q188 163 185 161T180 157Q178 146 175 136T167 116Q162 100 158 85T153 55L149 42Q144 34 137 30T122 23Q112 19 108 15L105 2L90 0Q77 -3 72 -4T59 -5L46 -4Q34 8 27 14T9 26L3 34Q-1 42 -2 48T-5 62Q-7
75 -11 80L-26 95ZM293 355Q279 335 266 313Q273 314 279 314T293 315Q328 317 358 320T423 330Q415 367 406 405T385 483L380 473Q355 446 332 415T294 356L293 355Z" />
<glyph unicode="B" glyph-name="B" horiz-adv-x="703" d="M83 483Q41 500 14 531T-31 604Q-21 631 1 649T50 681T109 702T169 716Q175 714 175 716T180 714Q216 725 263 735T363 743Q370 747 380 747T401 748T422 748T439 752Q445 745 457 744T482 733Q486 732
482 736T483 743Q496 743 506 737T524 724T540 710T557 704Q566 693 578 684T602 664T621 642T629 615Q628 609 633 608T640 602Q641 565 629 538T597 489T557 446T517 403Q529 388 544 376T576 351T606 326T631 295Q634 289 644 287Q647 275 652 263T663 239T669
218T664 203Q671 199 672 191T672 177Q650 150 642 139T630 123T622 114T604 98Q551 66 494 41T374 6Q369 -1 360 -5T338 -13T313 -18T288 -22Q283 -20 283 -16T277 -9Q276 -21 267 -21T243 -17T214 -3T188 14Q183 5 176 -5T160 -19Q146 -17 140 -16T127 -21Q119
-17 115 -13T107 -4T98 4T83 11Q85 16 80 26T66 39Q71 47 62 59T48 88Q49 95 49 102T51 116T56 128T66 135Q65 148 58 160Q67 167 70 177T75 199T82 220T95 238Q93 241 91 243T89 250Q104 275 110 292T119 326T127 362T143 410Q142 428 147 442T157 469T166 498T165
533Q148 531 141 521T131 494Q122 486 108 486T83 483ZM523 290Q485 311 454 315T394 315T339 302T287 290Q274 256 260 215T233 135Q269 140 299 150T357 172T412 197T468 221Q471 233 481 240T501 253T518 268T523 290ZM453 603Q391 605 331 592T230 554Q250
537 271 524T304 489Q352 508 388 537T453 603Z" />
<glyph unicode="C" glyph-name="C" horiz-adv-x="626" d="M93 87Q64 109 46 142T17 212T3 288T0 364Q9 391 22 413T51 456T84 495T119 533Q125 533 130 530Q134 541 142 549T159 563T177 576T192 592Q217 598 236 609T274 633T311 657T355 674Q364 684 377 691T404
704T430 717T451 736Q457 728 468 730T488 736Q494 737 498 734T505 728T511 723T517 729Q525 728 522 722T517 714Q527 716 533 711T554 703Q559 698 557 695T554 685Q590 674 600 651T602 602T573 555T525 526Q494 518 468 510T417 492T371 469T333 437Q305 429
283 415T241 384T203 349T167 312Q167 295 161 286T148 268Q150 249 156 236T170 208Q250 184 339 179T517 172Q526 160 537 150T558 128T573 103T576 68Q559 51 539 36T499 5Q490 4 478 5T452 6T425 5T399 -2Q336 0 270 13T148 46Q137 59 125 70T93 87Z" />
<glyph unicode="D" glyph-name="D" horiz-adv-x="603" d="M98 -11Q69 -4 54 12T31 51T21 101T15 157Q19 170 25 179T31 204Q42 236 51 266T63 328Q69 337 75 340Q83 397 77 457T57 568Q58 579 60 584T60 594Q58 603 66 603T82 603Q82 621 76 638T63 679Q71 697
74 714T85 745Q117 735 148 722T209 697T268 673T325 654Q368 623 413 593T496 526T559 442T588 331Q586 325 585 321T583 313T582 304T582 290Q546 227 491 184T371 108T236 48T98 -11ZM196 556Q187 556 183 552Q195 507 201 467T207 387T203 305T189 214Q202
215 212 219T232 228T254 237T281 242Q285 250 291 254T303 264Q328 274 353 285T399 310T437 342T465 385Q457 400 446 410T422 431T398 453T379 480Q363 482 351 488T328 501T305 514T275 521Q249 535 228 540T196 556Z" />
<glyph unicode="E" glyph-name="E" horiz-adv-x="642" d="M56 34Q48 42 45 53T28 71Q26 86 23 105T16 145T11 186T12 224Q14 233 18 241T27 256T34 272T35 288Q41 289 42 294T52 298Q59 320 67 339T84 376T102 412T120 454Q103 470 96 488T84 526T78 564T70 604Q82
622 99 633T136 652T181 664T232 675Q280 690 318 698T392 712T467 722T557 736Q558 733 560 733T567 733Q570 726 578 726Q578 729 578 731T577 736Q579 736 582 735T588 733T593 733T594 740Q606 719 625 706T667 682Q668 673 668 669T666 662T665 654T667 641Q651
614 631 599T587 576T539 564T487 556T433 543T380 519Q372 522 366 522T352 519T337 515T316 515Q308 508 298 505T276 499Q281 488 281 477T283 458Q325 454 376 458T476 465Q477 460 475 458T473 451Q482 445 490 436T506 419T524 405T545 400Q550 390 552 379T549
356Q529 343 510 330T471 305T426 287T374 281Q369 281 366 281T357 285Q347 280 331 281T303 278Q289 283 271 283T238 288Q220 262 204 234T176 173Q217 167 244 168T295 172T344 178T407 180Q432 192 464 196T525 210Q535 207 542 199T555 182T569 167T587 163Q592
158 593 151T596 138T601 129T612 126Q593 87 570 66T517 34T451 17T369 3Q358 1 351 3T335 6Q307 1 269 -4T191 -8T116 2T56 34Z" />
<glyph unicode="F" glyph-name="F" horiz-adv-x="589" d="M44 203Q14 220 -2 251T-20 310Q-17 334 -8 347T15 369T42 382T69 390L84 385Q89 380 94 376T105 368Q115 372 117 380T123 396Q126 407 130 418T140 440Q139 449 141 456T145 468Q139 473 137 473T128
476Q125 476 122 476T115 478Q100 489 96 496T86 512Q81 520 77 526T68 537L56 545L62 557Q64 559 64 562T60 573Q57 586 59 592L61 604Q71 617 72 619L82 629Q105 635 129 642T176 658Q199 666 223 674T271 688Q279 695 288 696T306 699Q313 699 319 700T328 705Q345
711 361 715Q391 723 440 734T550 750L571 751Q577 750 583 750T595 751Q647 751 664 719Q674 714 682 707T697 692Q702 687 706 684T713 678L721 670Q732 646 725 623Q719 611 712 609T698 605L685 598Q672 599 666 599T651 599Q621 599 582 596T501 586T421 570T353
549Q345 543 332 538Q329 537 323 533Q324 525 323 518T320 503Q319 498 319 493T317 481Q296 456 297 422L292 412Q288 408 286 401T285 385L289 373Q309 375 328 377T370 383Q398 388 426 391T486 395H525L516 386L527 385L521 369Q528 366 531 365T538 361L545
351Q550 348 554 342T559 324L556 314L509 254L503 246L493 249Q474 250 457 245Q449 243 440 241T422 238Q398 234 382 232T350 227Q328 223 308 220T269 209Q258 208 256 208T252 209Q242 209 232 206T213 200Q207 195 205 190T201 178Q199 171 196 165T187 151L188
133Q179 131 179 131T178 130Q178 122 176 115T171 102Q169 98 168 95T167 89Q177 71 172 48Q168 29 157 15T131 -8Q115 -10 108 -7T92 -1Q87 1 82 2T72 5L60 15Q57 21 53 26T45 38Q40 45 35 52T26 68Q19 103 23 126T36 173Q38 181 40 188T44 203Z" />
<glyph unicode="G" glyph-name="G" horiz-adv-x="808" d="M0 237Q0 248 3 257T4 280Q35 346 74 402T169 502Q178 509 183 516T194 531T207 543T225 551Q250 580 285 604T358 650T434 695T504 745Q515 738 521 740T535 741Q544 722 558 715T588 700T617 682T638
653Q631 653 631 648T634 637T636 626T627 621Q627 614 634 614T641 607Q641 601 639 598T638 586Q614 570 585 556T523 525T457 491T390 448Q357 424 324 395T259 334T201 267T155 199Q157 194 160 190T166 181Q204 179 237 181T303 177Q307 180 308 185T314 192Q382
199 441 214T561 246Q543 253 529 257Q523 263 529 267T540 277Q524 286 514 301T501 340Q508 346 508 354T501 367Q496 369 495 367T494 363T492 359T486 359Q487 370 491 377T497 394L580 449Q593 439 612 428T652 406T695 384T736 361Q754 353 767 342T792 318T816
293T845 273Q843 257 847 247T849 223Q830 189 803 166T743 125T671 97T593 75T513 53T433 26Q416 26 404 25T381 22T359 18T335 15Q330 16 329 13T324 8Q304 5 288 5T261 5Q247 5 232 1T204 -2Q114 2 63 62T7 227Q8 232 5 233T0 237Z" />
<glyph unicode="H" glyph-name="H" horiz-adv-x="712" d="M15 34Q12 33 11 36T10 42T13 47T20 47Q7 63 4 76T-10 108Q-7 111 -6 116T-4 127T0 134T7 133Q5 144 7 151T11 164T15 176T12 190Q31 216 37 246T44 302Q53 311 59 326T69 357T72 388T68 413Q69 417 72
417T81 417Q88 457 90 506T100 600T125 680T179 725Q186 700 197 681T222 644T250 608T276 568Q275 545 272 515T263 454T252 394T241 345Q242 340 248 339T250 327Q279 334 310 340T372 353T432 369T488 391Q494 439 503 486T505 581Q511 586 515 593T527 602Q521
625 522 650T530 698T553 736T590 758Q603 739 613 717T633 673T654 630T684 596Q687 561 689 525T692 449Q683 404 672 362T655 271Q647 262 642 250T633 225T622 200T607 180Q611 166 609 154T615 124Q617 93 608 73T582 38T544 15T501 -1Q491 5 483 11T462 21L467
30Q447 50 433 72T419 124Q419 125 421 137T425 164T430 190T433 204Q405 201 375 191T317 169T264 143T224 120Q224 117 219 103T207 74T192 46T174 35Q176 30 178 28T178 18Q161 13 148 5T120 -8T90 -14T50 -1Q50 6 44 11T32 21T20 28T15 34Z" />
<glyph unicode="I" glyph-name="I" horiz-adv-x="528" d="M17 -12Q3 -3 -5 11T-19 41T-28 74T-36 108Q-36 122 -30 128T-17 141Q7 142 26 145T63 151T99 156T138 159Q153 190 166 218T191 273Q197 298 206 319T225 360T241 399T250 441Q262 476 271 505T286 576Q248
570 225 565T192 554Q172 555 161 562T142 579T130 602T118 629Q122 638 120 655T108 681Q116 683 120 694T121 712Q138 717 157 718T194 721T230 725T259 736Q311 738 367 740T472 745Q490 739 513 739T560 736T602 723T628 688Q643 686 650 680T660 666T662 647T661
626Q645 614 621 607T567 595T507 589T445 586Q440 553 428 509T402 422T380 346T371 302Q361 279 355 263T343 233T332 206T318 175H386Q388 164 395 160T410 153T424 146T431 131Q450 126 455 116T458 95T448 71T433 50Q424 52 416 46T401 31Q372 35 344 32T292
27Q287 26 288 22T286 15Q255 25 223 23T157 14T88 -2T17 -12Z" />
<glyph unicode="J" glyph-name="J" horiz-adv-x="685" d="M326 18Q311 16 298 13T270 6Q264 4 258 3T245 0Q227 4 211 6T181 8L166 12Q154 16 148 18T137 22T124 25T102 28Q85 21 69 21Q58 21 46 24T22 38T-1 67T-20 115Q-17 138 -13 155T-5 182L3 191Q21 198
44 198Q66 198 87 191T129 176Q138 172 142 170T148 167T153 166T166 166Q171 166 175 166T185 168L197 167Q204 163 214 163Q221 163 228 165T244 169Q252 172 258 173T269 176L279 185Q289 189 294 194T304 205T311 219T321 234Q326 240 330 246T340 257V267Q356
304 368 342T389 418T404 492T416 557Q413 557 410 557T405 558Q375 558 356 557T321 554T288 549T243 540L226 537Q207 528 190 521T153 513Q123 513 101 537Q78 551 75 577Q70 586 71 594Q67 608 67 619T66 641L67 658H82Q88 664 90 667T94 674L97 684L107 685Q128
688 150 692T195 701Q218 705 234 708T266 712T297 714T334 715Q342 715 348 715T362 714Q366 719 370 720T376 721Q383 720 386 719T392 717Q426 723 454 724T506 726Q517 726 528 726T549 725H587H614Q619 726 623 726T633 726Q643 726 648 726T658 726T666 725T677
723Q694 720 708 718T736 716L755 717L758 705L767 692Q770 686 775 681T786 671Q798 660 809 644T818 596L809 584Q805 582 802 579T794 572L784 563Q771 562 762 562T742 561Q724 561 706 562T667 564Q656 565 650 565T639 565T628 565T611 564Q601 564 597 564T584
563Q582 531 577 508T563 458Q544 360 517 273T455 116Q423 82 394 56T329 18H326Z" />
<glyph unicode="K" glyph-name="K" horiz-adv-x="795" d="M20 183Q21 187 21 189T18 194Q16 201 21 203T31 207Q36 267 51 316T85 413T122 507T153 611Q166 624 174 642T191 678T211 714T243 742Q252 741 259 739T274 733T289 728T306 726Q310 721 313 715T321
703L339 706Q352 695 362 679T376 645T375 611T352 585Q353 579 352 576T350 571T348 566T352 559Q341 550 332 537T317 508T308 478T303 450Q332 480 371 506T439 555Q462 571 479 585T515 612T552 636T592 662Q602 666 607 664T618 659Q619 666 615 667T612 677Q629
682 642 689T671 702Q681 691 691 679T718 665Q724 652 732 646T749 633T764 619T771 592Q767 584 762 575T752 551Q728 529 704 513T654 481T602 450T548 413Q542 404 533 397T515 384T497 370T483 353Q479 353 476 353T469 351Q465 343 458 338T447 325Q465 286
494 266T559 237T637 227T724 226Q729 227 729 231T734 235Q749 230 759 223T778 208T795 192T815 174Q813 127 788 98T720 50Q662 48 619 53T534 75Q531 76 529 81T524 88Q516 93 506 92T489 94Q480 98 460 112T422 138Q401 155 382 171T347 208Q344 213 339 213T328
216Q293 194 270 162T224 96T178 33T116 -13Q105 -13 97 -10T82 -1T68 10T52 17Q52 31 47 43T36 66T28 87T33 107Q22 116 12 122Q19 129 19 135T15 147T11 159T14 174Q18 175 18 178T20 183Z" />
<glyph unicode="L" glyph-name="L" horiz-adv-x="648" d="M57 37Q53 41 50 46T45 61Q31 78 23 100T12 145T11 193T18 238Q21 248 23 259Q28 278 33 296T48 327Q44 338 49 351T59 375Q61 378 62 380T64 385Q76 420 87 452T110 515Q130 570 148 623T182 736Q190
742 196 744Q198 745 201 746T208 747Q229 736 257 727T306 717L323 702Q336 687 345 671T351 628Q345 619 341 617Q335 594 328 577T314 543Q306 525 299 507T287 463Q281 456 280 451T276 441Q274 435 271 429T262 417Q258 386 250 367T234 328Q220 293 208 259T194
180Q206 183 216 183Q229 183 241 179Q277 197 319 201T404 206Q439 206 469 209Q479 202 482 202T492 201Q495 201 498 201T506 200Q520 186 533 181T561 170Q574 165 586 160T611 145L620 94Q628 83 627 79Q627 71 623 65L625 52Q606 48 600 44T587 32Q576 31
566 31Q546 31 525 25Q495 36 459 36Q445 36 431 35T402 32Q387 30 372 29T342 27Q330 25 325 24T315 21Q281 10 242 -1T162 -12Q103 -12 67 18Q63 27 61 30T57 37Z" />
<glyph unicode="M" glyph-name="M" horiz-adv-x="997" d="M90 -14Q80 -14 59 -11Q43 6 31 35T12 98T5 165T17 225Q17 226 26 249T51 307T85 386T123 472T159 548T190 602Q199 616 206 629T221 653Q232 671 241 686T262 714T288 736T322 753Q334 748 343 743T359
729L362 715Q364 708 368 706T376 703Q389 700 398 697T419 692Q423 686 426 680T434 669Q454 640 467 613T467 554L468 543Q473 536 473 530T471 513Q470 505 470 496T472 475L479 467Q495 459 510 459Q530 459 546 468T576 486Q587 494 596 499T615 506Q636 526
653 541T690 573Q726 602 760 635T814 719Q825 726 839 726Q853 726 867 721T895 708Q898 706 900 705T906 702Q906 691 915 682Q920 678 922 677T926 675Q934 670 939 666T948 655Q957 628 978 613Q976 602 979 592T986 571Q988 567 989 564T992 555L970 557L973
535Q976 518 971 497T958 464Q960 434 960 417T958 384T952 356T940 327Q944 251 923 188T876 70Q873 63 870 57T865 45Q854 42 845 38T828 29Q817 22 806 18T783 13Q735 48 734 134T770 353Q777 358 776 368V379L766 380Q761 380 757 379T751 370Q719 347 682
323T604 278T523 244T442 230Q342 230 291 332L282 350L272 334Q269 329 262 315T247 281T234 242T230 207Q218 196 207 182T190 150Q188 145 189 141T192 131Q191 124 188 121T181 115Q176 110 171 105T162 92Q160 86 159 80T157 68Q157 57 154 53Q144 32 137
19T122 -2T108 -11T90 -14Z" />
<glyph unicode="N" glyph-name="N" horiz-adv-x="701" d="M181 94Q171 86 169 74T164 49T154 29T127 21Q123 16 125 15T130 6Q116 8 110 4T95 -2Q72 5 57 23T30 64T10 109T-8 149Q-8 153 -5 153T2 152Q-3 162 -5 174T-15 195Q14 257 47 324T113 461T180 601T245
740Q273 730 299 717T348 685T385 644T406 590Q404 584 401 586T396 584Q401 578 401 576T401 571T400 564T405 553Q400 554 398 552T391 551Q396 537 394 529T388 515T382 501T383 480Q379 480 378 479T375 475T373 472T367 471Q370 445 369 419T367 365T367 308T375
248Q418 273 444 313T486 402T510 507T528 621Q539 632 545 648T556 681T565 715T578 747Q596 745 608 737T632 718T655 698T685 686Q699 666 711 648T727 606Q721 596 718 584T712 560T702 538T685 521Q682 491 676 465T665 414T656 362T653 303Q644 274 633 244T617
187Q598 172 587 150T564 106Q559 102 558 104T549 108Q550 99 546 97T546 82Q529 74 516 61T488 37T452 23T398 31Q349 67 310 114T248 225Q238 222 233 212T224 191T216 171T204 162Q202 153 197 146T186 131T179 114T181 94Z" />
<glyph unicode="O" glyph-name="O" horiz-adv-x="762" d="M241 -4Q197 -10 161 0T97 31T48 81T14 143Q5 211 19 266T60 369T121 457T188 536Q195 533 199 536T207 544T215 554T226 561Q230 570 236 576T250 587T264 599T276 614Q286 616 293 621T307 632T321 643T338
651V664Q360 674 370 686T394 717Q405 718 411 718T432 720Q441 737 449 745T472 763Q487 755 504 754T535 738Q536 726 542 720T555 708T569 696T578 679Q583 679 584 681T591 682Q593 674 595 669T599 660T604 651T609 639Q604 627 600 614T584 595Q584 587 590
587T597 579Q598 570 594 564Q622 517 645 466T697 367Q695 353 698 340T707 313T718 287T725 261Q727 244 725 225T717 187T701 154T678 130Q662 110 638 98T594 68Q580 60 564 57T531 49Q518 41 500 34T463 20T425 11T391 9Q355 -4 321 -9T241 -4ZM254 360Q244
337 231 319T204 281T182 241T171 190Q191 173 218 170T275 168T333 176T385 181Q385 190 393 190Q435 194 471 213T546 253Q551 265 559 274T568 300Q563 309 562 315T560 333Q534 369 515 411T471 492Q469 487 463 482T450 484Q447 474 441 471T428 467T413 470T399
478Q364 450 330 424T267 363Q262 360 261 361T254 360Z" />
<glyph unicode="P" glyph-name="P" horiz-adv-x="655" d="M45 282Q46 286 49 286T56 286Q48 294 46 307T36 330Q38 335 39 340T48 344Q45 366 49 385T61 421T81 454T104 488Q113 490 115 487T122 488Q138 499 144 512T150 542Q159 568 170 593T197 641T229 679T266
705Q280 717 301 727T347 742T398 748T446 743Q451 741 452 745T457 750Q507 744 546 730T614 691Q633 661 650 627T676 555T685 477T668 397Q633 353 583 327T476 283T357 254T237 230Q238 203 237 173T231 112T215 52T186 -2Q166 -1 145 -6T106 -16Q98 -11 91
-7T72 -1Q75 11 67 24T50 49T39 74T50 97Q42 104 42 119Q46 115 52 115Q50 133 56 158T67 207T69 252T45 282ZM305 516Q301 505 299 497T293 481T287 467T279 451Q281 445 287 442T295 433Q309 440 323 443T351 449T379 454T408 464Q423 471 439 475T472 485T503
496T529 514Q515 527 487 537T427 549T362 545T305 516Z" />
<glyph unicode="Q" glyph-name="Q" horiz-adv-x="762" d="M15 87Q15 103 13 115T8 139T4 162T7 190Q4 199 1 207T-5 225Q-3 270 13 306T52 373T102 429T154 479Q159 474 161 477T173 479Q174 485 179 494T191 510T208 523T225 527Q235 546 255 560T297 589T335
620T356 662H376Q364 680 365 699T377 731T409 747T455 737Q466 735 470 741T483 749Q529 729 565 700T630 634Q628 631 626 630T621 627T619 623T622 618Q656 575 683 527T733 424Q738 383 736 343T725 257Q717 240 707 226T684 198T660 171T638 142L655 102Q654
94 658 85T666 66T672 47T672 32Q675 26 685 28Q681 26 680 20T689 16Q687 5 680 -9T662 -35T636 -56T601 -65Q581 -55 570 -45T542 -21L505 66Q432 33 349 13T173 -13Q123 1 82 25T15 87ZM272 351Q228 315 193 267T135 162Q144 157 157 156T181 152Q238 168 298
182T415 219Q392 247 372 273T339 325Q342 331 344 339T351 355T362 369T381 375Q399 368 423 367T468 362Q488 348 503 328T533 287Q555 307 571 331T595 387Q589 403 580 423T560 462T534 496T502 516Q494 518 492 514T479 512Q425 473 371 436T272 351Z" />
<glyph unicode="R" glyph-name="R" horiz-adv-x="662" d="M28 86Q23 85 19 93T10 110H21Q14 132 17 150T26 186T34 220T31 255Q36 252 38 257T42 271T44 289T42 305Q55 336 62 369T76 434T89 497T109 555Q123 557 138 552T159 538Q190 562 214 596T262 662T318
720T395 750Q419 733 449 714T498 665Q506 660 513 655T529 644V629Q543 616 552 599T569 562T584 522T600 485Q598 479 598 475T600 466T603 456T604 442Q600 389 570 357T496 304T403 269T314 237Q314 233 318 233T321 227Q351 209 367 198T398 180T430 167T479
155Q510 148 527 144T559 137T589 132T632 127Q643 116 650 101T660 71T662 43T653 21Q654 17 658 17T668 17Q661 12 656 5T646 -9T635 -22T618 -29Q582 -43 526 -30T383 16Q340 32 313 45T266 70T229 97T190 132Q187 131 187 128T183 124Q178 84 168 59T137 8Q121
11 116 5T102 -6Q92 -8 87 -6T78 0T69 6T53 8Q50 17 47 25T31 33Q34 42 33 48T30 60T27 72T28 86ZM362 543Q349 524 333 509T302 477T274 441T257 394Q299 399 345 417T432 453Q427 490 406 512T362 543Z" />
<glyph unicode="S" glyph-name="S" horiz-adv-x="590" d="M13 451Q16 466 17 475T10 496Q14 512 16 521T17 546Q26 572 44 590T85 620T131 641T176 656Q176 660 172 660T170 665Q224 675 278 694T390 728T507 746T633 731Q637 719 644 708T658 687T672 666T679
645Q691 634 698 622T701 588Q690 580 678 572T653 557Q608 568 563 565T482 558Q471 570 456 570T425 565T392 556T362 553Q351 543 333 540T295 534Q294 529 297 527T298 519Q305 510 317 507T341 500T364 492T377 474Q395 473 408 465T430 444T443 419T446 394Q450
384 454 386T465 381Q469 366 483 350T506 314Q508 284 509 260T501 213Q484 169 452 134T380 73T294 27T205 -6Q201 -5 196 -6T193 0Q184 -8 173 -10T148 -12T121 -10T94 -11Q86 -3 80 5T69 24Q64 25 64 30T60 36Q60 40 61 42T63 46Q67 49 67 50T64 53T59 57T57
62Q62 71 61 83T58 109T60 133T77 153Q118 149 154 157T223 179T285 209T343 240Q346 250 352 257T366 270T379 284T388 303Q389 307 388 309T385 312T381 316T379 322Q376 323 374 324T369 325Q343 338 314 347T265 367Q253 359 241 363T212 371Q170 373 133 379T60
400Q58 406 55 410T41 413Q34 423 27 431T13 451Z" />
<glyph unicode="T" glyph-name="T" horiz-adv-x="622" d="M22 564Q21 572 19 578T13 593Q8 605 4 619T0 652Q2 662 5 666T11 674L15 692H30Q38 691 46 691T63 691Q101 691 141 694T223 701Q269 707 322 710Q327 721 328 724T332 731L343 737Q366 738 375 732T389
719Q415 721 442 724T498 732Q538 737 579 742T659 747Q676 747 691 746T720 743L732 734Q736 727 742 721T756 709Q771 697 785 679T796 626L791 616Q787 612 781 608L771 595H760Q750 595 745 594T733 589Q729 587 724 586T713 582Q702 583 696 583T682 583Q652
583 617 579T549 570Q525 567 503 565T463 560Q453 534 445 514T428 474Q419 454 411 434T396 388Q384 370 376 354T363 316Q348 299 342 279T330 245L326 230Q319 223 318 219T312 210Q309 197 304 185Q302 180 300 175T299 166Q297 155 293 149Q293 143 292 137T290
125Q288 118 287 113T288 102Q291 98 294 94T299 84Q301 82 304 81T309 78Q317 71 324 70L334 58Q340 22 323 2Q305 -21 263 -21L249 -20Q242 -13 241 -11Q232 -7 226 -5T215 5Q213 7 210 7T205 10Q195 13 189 17L178 23Q179 33 179 37Q171 48 167 61T159 88Q156
99 154 108T146 124Q144 194 159 241T192 334Q202 358 211 383T227 434L238 445Q245 451 247 452Q247 465 252 477T263 503Q267 511 270 519T275 533Q268 533 263 533T251 531Q238 528 226 528Q217 528 213 529Q205 525 198 525T184 524H172H160Q148 524 141 521Q127
521 123 521T114 521H102H90Q82 521 72 522T51 530L44 538Q38 549 33 550L22 553V564Z" />
<glyph unicode="U" glyph-name="U" horiz-adv-x="712" d="M72 495Q70 508 67 511Q74 529 77 546T83 580Q85 594 87 606T94 629Q111 633 119 643T133 662Q151 663 156 657T169 637Q174 626 183 614T210 594Q213 583 217 573T226 552Q235 531 243 509T252 466Q240
443 234 413T226 353T227 294T237 247L243 231L265 233Q301 242 330 253T384 281T432 317T480 366Q504 394 523 429T554 503T574 579T583 650Q602 659 604 679L601 692Q598 697 598 701T601 710Q609 733 635 744Q653 732 668 718T697 690Q699 663 705 644T718 606Q725
589 730 573T738 534Q728 504 724 478T715 422L713 411Q695 380 678 348T649 291Q643 285 639 277T630 261Q628 258 625 251T618 241L594 250L588 219L572 215L560 201Q537 161 512 134T455 86T384 47T293 7Q273 10 259 10T230 12Q216 12 203 13T173 16Q169 25
162 29T149 33Q129 43 119 61T98 101Q93 113 88 125T74 148L94 154L68 184Q65 187 62 190T55 197V216Q51 298 51 367T70 490L72 495Z" />
<glyph unicode="V" glyph-name="V" horiz-adv-x="598" d="M79 376Q74 404 76 434T78 492Q78 519 75 549T69 608T66 659T73 696Q81 711 93 719T116 739Q129 737 139 732T157 718T168 700T170 682Q195 667 210 642T234 586T246 521T252 454T257 392T267 340Q311
404 341 453T403 548T472 641T571 747Q584 745 591 742T605 736T620 732T642 732Q647 720 649 715T654 704T659 691T668 667Q671 663 671 657T669 645T668 637T675 637Q671 620 662 607T654 574Q627 538 594 500T528 421T465 335T413 240Q407 240 404 237T399 230T394
222T385 218Q383 186 362 158T318 109Q320 101 320 96T319 86T318 76T318 62Q309 38 295 22T263 -2T228 -9T194 4Q187 8 182 15T172 28T161 40T147 48Q149 58 148 69T143 89T136 104T128 110Q124 135 118 164T105 223T94 280T91 332Q92 344 87 353T79 376Z" />
<glyph unicode="W" glyph-name="W" horiz-adv-x="1018" d="M78 71Q73 82 68 92T58 110Q46 134 37 153T20 197Q23 214 30 254T48 341T69 438T93 522Q104 553 117 588T147 652T183 703T224 728Q230 720 237 716T250 709Q267 685 283 669T321 636Q315 606 304 570T280
496T255 425T236 365Q230 345 224 319Q219 297 214 266T203 198Q217 202 234 214T267 239Q285 254 302 271Q325 294 341 313T370 352T398 397T433 456Q451 485 470 518T510 581T549 636T584 676Q595 665 609 653T641 636Q648 625 654 617T667 600Q675 589 681 580T693
560Q692 552 690 539T684 511T678 479T671 448Q661 403 656 380T649 344T647 322T646 297Q646 285 648 273Q650 262 652 251T662 229L710 266Q730 281 748 308T784 371T819 448T853 534Q865 566 877 597T903 657T928 709T953 749Q980 732 999 715T1033 678T1056
631T1069 568Q1047 526 1028 482T990 393Q966 335 941 278T884 168T815 73T726 -1Q712 2 702 2Q691 2 684 -1T670 -9Q629 10 604 47T555 131Q552 138 549 144T541 158L524 189L514 208L500 195L479 176L467 164Q436 135 404 108T337 58T263 21T178 6Q170 10 164
13T151 19Q128 30 113 40T78 71Z" />
<glyph unicode="X" glyph-name="X" horiz-adv-x="638" d="M52 -34Q13 -5 -5 37T-10 122Q-8 153 5 181T38 236T81 285T124 328Q128 340 138 349T159 366T182 385T201 408Q197 422 188 436T168 464T145 492T123 521Q122 526 116 524T106 525Q108 541 100 559T77
591Q82 603 86 622T84 663Q83 673 86 682T94 699T100 714T99 730Q114 732 126 729T149 721T169 713T188 714Q186 708 187 706T191 702T196 699T199 694Q218 688 240 668T284 624T322 577T347 540Q376 558 409 583T478 634T550 683T622 721Q642 712 653 698T672
669T686 638T704 610Q694 590 683 577T667 544Q642 534 607 512Q577 493 531 460T422 373Q437 356 446 341T462 315Q469 302 473 291Q484 283 491 272T504 250T519 228T540 212Q544 194 550 179T561 148T570 119T573 89Q565 62 549 44T526 7Q515 4 505 1T487 -10L419
38Q401 98 367 153T301 248Q253 211 209 166T129 70Q127 45 123 29T110 1T87 -18T52 -34Z" />
<glyph unicode="Y" glyph-name="Y" horiz-adv-x="505" d="M149 -33Q61 -21 42 60L43 71Q47 83 52 98Q57 115 63 131T83 161Q86 170 94 188T123 244Q139 273 148 290T164 316Q154 334 136 351Q120 381 109 408T91 458Q90 482 83 507Q80 520 77 533T74 560Q70 567
67 578L69 590Q74 598 72 611T65 639Q62 652 60 666T58 695T65 722T88 744L98 751L108 745Q119 738 129 733T149 723Q161 717 173 711T199 696L209 689L208 678Q208 676 209 673T212 668L223 665L224 651V639Q224 630 225 627T229 619L234 606Q234 588 237 574T244
546Q249 532 252 518T253 486Q259 489 265 495Q267 497 269 499T275 503L345 598L343 610L368 634Q378 642 387 650T402 670L408 679Q453 739 524 753L541 757L546 741Q551 727 565 717T597 696L608 689Q614 677 614 671T613 661L618 648Q607 619 594 607T567 583Q556
574 547 565T533 545L525 535Q500 522 493 497L489 483H474Q473 483 469 479T457 457Q448 445 445 442T439 436Q437 431 436 427T432 417L426 409Q417 401 413 394T404 376Q400 367 395 358T381 339L383 328L375 321Q367 314 361 304T349 282Q343 270 336 258T318
236Q311 218 306 208T287 184Q275 136 230 81Q229 70 224 60T212 40Q210 36 208 32T204 25L201 14Q195 3 189 -4T176 -17Q173 -19 171 -22T166 -27L149 -33Z" />
<glyph unicode="Z" glyph-name="Z" horiz-adv-x="680" d="M-8 88Q-11 118 -10 142T-3 188T12 230T34 273Q48 278 59 286T80 303Q90 312 99 318T118 326L128 332Q148 355 177 374T237 412Q263 427 288 442T334 478Q344 477 351 482Q356 489 355 497Q358 499 360
501T366 506Q374 513 388 520T408 541L434 566L398 565Q371 565 341 562T288 557Q270 555 252 554T210 552Q191 564 178 583T157 624T148 670T154 716Q162 718 168 720T181 726Q192 727 195 726T204 725Q264 735 302 735Q344 735 378 725Q420 725 463 728T552 723Q584
733 616 729T671 700Q673 680 682 670T706 654Q715 619 708 593T682 547T639 510T590 479Q583 468 573 461T554 446Q515 394 464 358T359 286Q321 260 284 234T211 178L198 167L209 155Q223 141 243 141Q254 141 264 144T284 151Q293 154 300 156T313 159L324 157Q339
165 348 168T368 175Q376 177 385 180T404 188Q430 188 454 195T501 212Q515 217 528 222T556 231Q561 224 567 220T580 212Q589 207 593 204T598 194L602 161L623 184Q638 170 639 156T636 118Q597 79 540 57T418 16Q404 12 391 9T364 0L365 21L339 4Q334 0 331
-3T325 -11Q294 -18 274 -22T235 -30Q215 -35 198 -38T159 -41Q152 -41 146 -41T132 -39Q126 -37 118 -35L104 -9L85 -23Q74 -14 60 -4Q48 6 38 16T27 36L26 48L14 51Q12 53 10 61Q8 67 4 75T-8 88Z" />
<glyph unicode="[" glyph-name="bracketleft" horiz-adv-x="397" d="M417 -32Q435 -37 440 -46T443 -66T434 -88T420 -109Q410 -107 403 -113T389 -127Q361 -123 334 -126T284 -132Q280 -132 280 -136T278 -142Q248 -132 217 -134T154 -144T88 -159T20 -169Q7
-160 -1 -147T-14 -118T-23 -86T-31 -54Q-31 -43 -27 -37T-17 -25Q-3 33 17 91T52 206Q65 255 77 297T101 379T123 458T144 539Q153 573 161 604T177 666T192 730T207 805Q205 818 205 824T205 838Q202 855 194 863Q202 865 205 876T206 892Q222 897 240 898T277
901T311 905T339 915Q389 917 443 919T543 924Q560 919 583 919T628 915T668 903T693 869Q708 867 714 862T723 848T725 830T724 810Q707 797 682 790T626 779T563 773T500 771T443 769T398 766Q384 764 372 763T348 759Q338 714 326 664T302 563T277 464T255 377T239
309T232 269Q217 222 207 189T188 126T171 67T149 -1Q166 2 197 5Q223 7 265 9T374 11Q376 1 383 -3T397 -11T411 -18T417 -32Z" />
<glyph unicode="\" glyph-name="backslash" horiz-adv-x="361" d="M286 134Q281 121 282 110T287 87T295 66T299 46Q294 38 291 30T285 14T278 -3T264 -19Q244 -22 231 -21T199 -21Q180 -11 170 7T156 47T151 90T153 129Q162 137 152 139Q152 146 151 164T146
203T140 248T134 289Q126 304 122 337T113 405T103 471T87 513Q89 535 81 570T67 642T61 711T81 761Q118 749 145 726T199 667Q201 653 204 628T211 572T219 508T227 445T236 392T246 357Q247 336 253 310T266 255T275 198T272 147Q274 142 278 140T286 134Z" />
<glyph unicode="]" glyph-name="bracketright" horiz-adv-x="413" d="M395 876Q408 874 414 869T422 855T423 837T422 817Q412 776 400 723T374 610T343 490T314 377T291 287T281 235Q264 184 254 149T234 83T214 18T188 -62Q186 -74 179 -86T164 -109Q154 -107
147 -113T133 -127Q105 -123 78 -126T28 -132Q24 -132 24 -136T22 -142Q-8 -132 -39 -134T-102 -144T-168 -159T-236 -169Q-249 -160 -257 -147T-270 -118T-279 -86T-287 -54Q-287 -40 -281 -34T-269 -21Q-246 -20 -228 -18T-192 -13T-158 -8T-119 -5Q-113 -1 -95
1T-52 6T-1 9T50 10Q62 52 76 92T101 173Q113 222 126 263T152 344T175 423T192 505Q202 541 211 570T228 629T243 693T259 772Q221 776 187 776T133 772Q85 764 59 758T23 746Q6 747 -3 753T-19 770T-29 792T-40 817Q-37 826 -38 842T-48 867Q-42 869 -39 880T-38
897Q-23 902 -7 903T25 906T55 910T81 920Q125 922 172 925T262 930Q277 925 297 925T337 921T373 909T395 876Z" />
<glyph unicode="^" glyph-name="asciicircum" horiz-adv-x="531" d="M460 464Q463 443 462 420T460 375Q460 354 462 331T467 285T469 245T464 217Q458 206 449 199T431 184Q411 186 399 200T389 228Q360 246 348 279T331 352T324 428T314 492Q280 442 257 404T210
331T157 260T80 178Q70 179 65 181T54 186T43 190T26 190Q22 199 20 203T17 211T13 221T5 240Q3 243 3 247T4 256T5 262T0 262Q3 275 10 286T16 311Q37 339 62 368T113 429T162 495T202 569Q206 569 208 571T213 577T217 583T223 586Q225 611 241 633T275 670Q272
682 274 688T276 706Q290 743 317 755T371 751Q382 743 388 732T407 717Q405 701 410 686T422 669Q425 649 430 627T440 583T448 538T450 498Q450 489 454 482T460 464Z" />
<glyph unicode="_" glyph-name="underscore" horiz-adv-x="726" d="M670 70Q693 68 703 63T718 51T721 34T720 16Q694 5 655 -1T568 -10T470 -13T371 -14T282 -14T214 -15Q131 -20 85 -25T22 -35Q-8 -34 -25 -28T-54 -13T-73 7T-92 31Q-86 39 -89 54T-108 76Q-96
78 -90 88T-89 103Q-64 107 -36 108T21 109T74 112T118 121Q195 121 279 121T436 124Q462 119 497 118T567 114T630 101T670 70Z" />
<glyph unicode="`" glyph-name="grave" horiz-adv-x="773" d="M306 624Q298 636 298 647T300 669T309 691T321 717Q329 721 339 731T350 753Q355 750 364 755T376 767Q387 761 396 752T415 733T433 717T453 707Q477 680 504 654T555 602Q559 588 569 581T588 566T599
547T588 515Q594 505 593 497T588 482T576 468T562 454Q538 455 512 469T462 501T416 539T380 572Q351 598 333 610T306 624Z" />
<glyph unicode="a" glyph-name="a" horiz-adv-x="595" d="M529 84Q523 67 512 50T485 19T450 -4T410 -14Q397 -11 393 -8T383 -1Q380 1 378 2T373 5L361 10L365 23Q367 31 364 35T352 48Q349 51 346 54T341 60L324 79L351 86Q376 93 384 104T391 141Q371 145 358
142T330 135Q312 130 294 127T253 123Q245 123 238 123T223 125L213 127Q211 138 209 139T205 143Q200 148 195 156T192 178Q187 187 186 196Q180 184 177 171L173 161L163 159Q161 158 160 155T159 149L154 132Q152 130 150 129T146 125Q144 116 141 107T135 90Q130
77 127 65T124 40L120 29Q115 23 109 20T97 13Q95 11 92 10T86 7L83 -4L71 -6Q60 -8 56 -9T45 -10L35 -9Q24 0 18 5T4 16Q-5 28 -6 34T-8 45Q-10 51 -10 55T-13 61L-26 73L-15 82L-14 99Q6 150 28 197T75 293Q83 309 90 325T106 357Q105 360 105 364T107 373Q118
390 125 403T139 431Q147 448 155 464T177 497L193 504Q196 505 200 506T209 508L224 506Q252 519 273 542T316 599L326 613L339 605Q344 602 353 600T372 594Q390 590 406 585T432 570Q438 554 439 546T442 530Q445 513 447 496T451 458Q456 441 459 425T466 391Q471
367 476 345T489 302Q497 302 499 301Q504 303 509 304T522 306L533 307L537 297Q538 292 547 287Q560 286 566 282T577 272Q581 268 585 266L600 260L592 245Q582 227 564 211T522 183Q523 177 523 172T526 160Q529 143 531 125T531 88L529 84ZM240 257Q270 259
294 261T349 270Q342 300 334 332T317 397L311 387Q291 366 273 340T241 291Q235 282 229 273T218 255Q224 256 229 256T240 257Z" />
<glyph unicode="b" glyph-name="b" horiz-adv-x="587" d="M549 163Q555 160 556 153T556 142Q538 119 531 110T521 97T515 89T499 76Q454 49 407 28T307 -1Q299 -12 277 -16T235 -25Q231 -23 231 -20T226 -14Q225 -24 217 -24T198 -21T174 -9T152 5Q147 -3 142
-11T128 -22Q117 -20 112 -19T101 -23Q95 -20 92 -16T85 -9T77 -2T64 3Q66 7 62 15T50 26Q54 33 47 43T35 67Q37 78 38 91T50 106Q49 113 47 118T43 128Q50 134 53 142T58 160T63 178T74 193Q83 223 88 237T95 266T101 296T114 336Q113 351 117 362T125 385T133
409T132 439Q118 438 112 430T104 407Q96 399 85 399T64 397Q29 411 6 437T-31 498Q-22 521 -4 536T37 562T86 579T136 592Q175 599 214 608T298 614Q304 617 312 617T330 618T347 618T362 622Q367 616 376 615T397 605Q409 614 417 609T433 598T446 587T460 582Q467
573 477 565T497 549T513 530T520 507Q519 502 523 501T529 497Q530 466 520 444T494 402T460 366T426 330Q436 317 449 307T475 287T501 266T521 240Q523 238 526 237T532 233Q535 223 540 213T548 193T553 176T549 163ZM373 497Q322 499 272 488T187 457Q204
443 221 432T249 402Q288 418 318 442T373 497ZM386 178Q389 188 397 194T413 205T427 217T432 236Q400 253 374 256T324 257T279 246T235 236Q224 207 212 173T189 107Q219 111 244 119T292 138T338 158T386 178Z" />
<glyph unicode="c" glyph-name="c" horiz-adv-x="526" d="M416 -2Q400 -3 377 -1T333 -8Q280 -6 225 5T124 32Q114 43 104 52T77 66Q53 85 38 112T14 171T2 234T0 297Q15 342 42 374T99 439Q112 445 118 451T132 463T147 474T161 488Q182 493 197 502T228 522T259
542T296 556Q304 565 315 570T337 581T359 593T376 609Q381 601 390 603T407 609Q412 610 415 607T422 601T427 598T432 602Q437 602 435 597T432 590Q440 591 445 587T463 581Q467 576 465 574T463 565Q493 556 501 537T502 496T477 457T438 433Q390 420 348 405T278
359Q254 352 236 341T201 315T170 285T139 254Q140 240 135 233T124 217Q126 202 131 191T142 168Q208 148 282 143T432 137Q439 127 448 119T466 101T479 80T481 51Q467 36 450 24T416 -2Z" />
<glyph unicode="d" glyph-name="d" horiz-adv-x="509" d="M493 270Q492 265 491 262T489 255T488 248T488 236Q458 183 413 147T313 84T199 34T84 -15Q60 -9 48 5T29 37T20 78T15 125Q18 136 23 143T29 165Q37 191 45 216T55 267Q58 275 66 278Q71 326 67 375T50
468Q51 478 52 482T52 489Q51 497 57 497T71 497Q71 512 66 527T55 561Q62 576 64 590T73 616Q127 599 176 575T274 540Q310 514 348 489T417 433T469 363T493 270ZM256 215Q277 223 297 232T335 252T367 279T390 315Q384 327 374 336T354 354T335 372T319 394Q306
396 296 401T277 412T257 423T232 429Q210 440 193 445T166 458Q159 458 155 455Q165 417 170 384T175 317T172 248T161 172Q171 173 179 176T196 184T214 191T237 196Q240 202 245 206T256 215Z" />
<glyph unicode="e" glyph-name="e" horiz-adv-x="534" d="M558 563Q559 556 559 553T558 546T557 540T559 529Q538 495 511 483T451 465T386 453T319 427Q306 432 296 427T265 424Q259 418 250 416T232 410Q236 401 236 392T238 376Q273 373 315 377T399 382Q400
377 398 376T397 370Q404 365 411 358T425 343T439 332T457 328Q461 320 462 311T460 291Q444 280 428 269T395 248T358 234T314 229Q309 229 307 229T300 232Q292 227 278 229T255 226Q244 231 229 231T201 234Q185 213 172 189T149 138Q183 133 205 134T248 137T289
142T342 144Q362 155 389 158T440 170Q448 167 454 160T465 146T477 134T492 130Q496 126 497 121T500 110T503 102T512 99Q497 66 478 49T433 22T378 8T310 -4Q301 -6 295 -4T281 -1Q258 -6 226 -10T161 -13T98 -5T49 22Q41 29 39 38T25 53Q24 66 21 82T15 115T11
150T12 181Q15 196 24 208T31 234Q36 235 37 239T45 243Q51 261 58 277T72 308T87 338T102 373Q88 386 82 401T72 432T67 464T60 498Q70 513 84 522T116 538T153 548T195 557Q235 570 266 577T328 588T392 597T467 609Q476 600 484 600Q488 609 493 606T498 611Q508
594 523 583T558 563Z" />
<glyph unicode="f" glyph-name="f" horiz-adv-x="466" d="M140 34Q134 0 106 -13Q93 -14 87 -12T73 -7Q64 -3 57 -2L46 6Q44 11 41 16T34 26Q26 36 18 51Q12 80 16 99T26 138Q28 144 30 150T34 163Q8 177 -5 203T-20 253Q-17 272 -9 283T9 302T31 313T54 320L67
315Q76 306 85 301Q92 304 94 310T99 325Q102 334 105 343T114 361Q113 374 118 385Q111 390 103 391Q101 391 93 393Q81 402 77 408T68 421Q62 434 53 442L43 449L48 459Q50 461 50 464T46 473Q44 484 46 488L48 498Q56 509 56 510L65 519Q85 524 104 530T144
544Q163 550 182 556T222 568Q229 573 237 574T252 577Q258 578 263 578T270 582Q282 586 298 591Q323 598 364 606T456 620L473 621Q478 620 483 620T493 621Q538 621 550 594Q559 589 566 583T579 571Q582 567 585 564T591 560Q608 534 602 514Q593 501 579 499L568
493Q557 494 552 494T540 494Q515 494 482 491T415 483T348 469T292 452L274 443Q267 432 266 426T264 413Q263 409 263 405T261 396Q244 375 244 346Q237 334 235 329T235 315Q254 307 271 309T305 314Q328 318 352 321T403 324H435L427 316L432 302Q438 299 440
298T446 295L451 286Q455 284 458 279T463 264L422 206L408 202Q391 203 378 198Q371 196 364 195T349 193Q329 189 316 187T288 183Q270 181 253 178T221 168Q211 168 207 168Q199 168 191 166T175 161Q170 157 168 153T164 143Q160 129 153 120V105Q145 95 144
90T140 79Q138 76 137 74T136 68Q144 53 140 34Z" />
<glyph unicode="g" glyph-name="g" horiz-adv-x="668" d="M709 180Q685 137 646 114T560 75T462 47T362 16Q348 16 338 15T318 13T299 10T279 7Q275 8 274 6T271 1Q254 -2 241 -2T218 -2Q206 -2 194 -5T171 -8Q96 -4 54 45T6 183Q7 188 5 189T0 192Q0 202 2 209T3
227Q29 282 62 329T141 413Q148 419 153 425T162 437T173 447T188 454Q209 478 238 498T299 536T362 573T420 615Q431 610 436 612T447 612Q454 597 466 591T491 579T515 563T532 539Q526 539 526 535T529 526T531 517T523 512Q524 507 529 507T535 501Q535 496
533 493T532 483Q512 470 488 458T437 433T382 404T326 368Q299 348 271 324T217 272T168 217T129 160Q131 155 133 153T138 145Q170 143 197 145T253 142Q256 144 257 148T262 154Q319 160 368 172T468 199Q460 202 454 204T441 209Q436 214 441 217T451 225Q437
233 429 245T418 277Q424 282 424 289T418 300Q414 301 413 300T412 297T410 294T405 294Q406 303 409 309T415 323L484 369Q495 361 511 352T544 333T580 314T615 295Q629 289 640 279T661 259T681 238T706 221Q704 208 707 200T709 180Z" />
<glyph unicode="h" glyph-name="h" horiz-adv-x="596" d="M512 97Q514 71 506 54T484 25T452 6T417 -7Q409 -2 402 3T384 12Q371 36 359 54T348 97Q348 98 349 108T353 130T357 152T359 164Q336 162 311 154T263 135T219 113T185 94Q185 91 181 80T171 56T158
33T144 23Q145 20 147 17T147 9Q133 5 122 -1T99 -12T73 -17T40 -7Q40 -1 35 3T25 11T15 17T11 22Q6 21 7 29T15 33Q4 47 2 57T-10 84Q-8 86 -7 91T-4 100T-1 106T4 105Q2 114 4 120T8 131T11 141T8 152Q24 174 29 199T35 246Q42 253 47 266T56 292T59 318T55 339Q56
344 66 342Q72 375 74 416T83 495T103 561T148 599Q154 578 163 562T184 532T207 502T229 468Q228 449 225 424T218 373T209 323T200 282Q201 277 205 276T207 267Q231 273 257 278T309 289T359 302T405 321Q410 360 418 399T420 479Q425 483 428 489T438 497Q433
516 434 537T441 577T460 609T491 627Q502 611 510 593T526 556T544 521T569 492Q572 463 573 432T576 369Q568 331 559 296T545 220Q538 212 534 202T526 182T517 162T505 145Q509 133 507 123T512 97Z" />
<glyph unicode="i" glyph-name="i" horiz-adv-x="328" d="M212 70Q217 40 209 23T185 -2T149 -12T111 -10Q101 4 93 25T78 68T66 113T56 152Q61 164 62 179T64 211T65 243T68 275Q75 317 88 355T110 434Q112 443 109 451T107 466Q108 470 113 471T119 478Q122
489 121 496T124 513Q129 521 136 536T142 569Q151 575 159 583T175 597T194 609T220 614Q228 604 230 592T235 568T243 546T260 529Q260 521 260 509T261 486T265 465T277 452Q259 404 244 357T218 263T206 167T212 70Z" />
<glyph unicode="j" glyph-name="j" horiz-adv-x="547" d="M484 464Q482 438 478 418T467 376Q450 295 428 222T376 91Q350 62 326 40T271 9Q256 7 245 5T222 -1Q217 -2 212 -3T201 -6Q186 -3 173 -2T148 0L135 4Q125 7 120 9T110 12T100 15T82 17Q67 11 54 11Q36
11 15 26T-20 90Q-18 109 -15 123T-7 146Q17 160 33 160Q52 160 69 154T104 141Q112 138 115 136T120 133T124 132T135 132Q140 132 143 132T151 134L161 133Q167 130 175 130Q185 130 200 135Q207 138 211 139T221 141L229 149Q238 152 242 156T250 165T257 176T265
189Q269 194 272 199T280 209V219Q293 248 303 279T321 343T334 405T344 459H334Q309 459 293 459T264 457T237 452T200 445L185 442Q170 434 155 428T125 422Q99 422 81 442Q62 455 59 476Q54 482 56 490Q52 502 52 511T52 529V543H65Q70 548 72 550T75 557L86
566Q103 568 121 571T160 579Q179 583 192 585T218 588T244 589T276 590H299Q302 594 305 594T311 595Q316 595 319 594T324 592Q352 597 376 598T419 600Q429 600 437 600T454 599H487H509Q514 600 525 600Q541 600 545 600T562 597Q576 595 587 594T611 592H626L629
582L637 572Q639 567 643 563T653 554Q663 544 672 531T679 492L672 481Q667 479 660 472L651 464Q640 463 632 463T616 462Q601 462 586 463T553 465Q544 465 539 465T530 465T520 465T507 465Q499 465 495 465T484 464Z" />
<glyph unicode="k" glyph-name="k" horiz-adv-x="661" d="M603 36Q555 34 519 38T447 57Q445 58 443 62T439 68Q433 71 425 71T410 72Q402 76 385 87T354 109Q336 123 320 137T292 167Q289 171 284 171T275 174Q246 156 226 129T188 74T150 21T99 -17Q90 -17 83
-14T70 -7T58 2T45 8Q45 20 41 30T32 49T25 66T29 83Q23 89 11 96Q17 102 17 107T14 117T11 128T13 140Q18 140 25 142Q19 150 19 151T17 156Q15 162 19 163T27 167Q31 216 44 258T73 339T104 418T130 504Q141 515 147 530T161 560T178 589T205 613Q219 612 230
606T257 600Q260 595 262 590T269 580L284 583Q295 574 303 561T315 532T314 504T295 482Q296 477 296 475T294 470T293 466T296 460Q276 445 266 418T255 370Q267 382 281 393T311 416T341 437T368 457Q401 487 431 505T496 547Q504 549 508 548T518 544Q518 550
515 551T512 559Q527 563 538 568T562 579Q571 570 579 561T601 549Q606 538 613 533T627 522T639 510T646 488Q642 481 638 473T629 454Q609 436 589 422T547 395T504 369T459 338Q454 331 447 326T431 315T416 303T405 289Q402 288 399 288T393 287Q390 280 384
276T375 265Q390 233 414 216T468 192T533 184T606 183Q610 184 610 187T614 190Q638 182 651 168T682 139Q680 101 659 76T603 36Z" />
<glyph unicode="l" glyph-name="l" horiz-adv-x="546" d="M264 11Q236 2 203 -7T137 -16Q87 -16 58 9Q53 20 49 24Q46 28 44 32T40 45Q28 59 21 77T12 115T10 155T17 193Q19 197 19 201T21 210Q25 226 29 241T42 267Q38 276 42 287T51 307Q65 345 74 371T94 424Q111
469 126 513T153 608Q161 613 165 615Q171 617 175 618Q193 609 217 601T257 592Q265 587 267 585T271 580Q282 567 290 554T295 518Q289 509 286 509Q281 489 276 475T264 447Q257 432 251 417T241 380Q237 375 236 371T232 362Q230 357 228 352T220 342Q217 316
211 300T197 268Q185 239 176 210T164 144Q169 146 173 146T182 146Q191 146 203 143Q233 159 268 162T339 166Q353 166 367 166T393 168Q402 163 404 163T412 162Q419 162 424 161Q436 150 447 145T470 136Q481 132 491 128T512 115L519 72Q526 63 525 60Q525
52 521 48L523 37Q508 34 503 30T492 21Q484 20 481 20T474 20Q460 20 440 15Q413 24 384 24Q373 24 361 23T337 21Q325 19 313 18T287 17L264 11Z" />
<glyph unicode="m" glyph-name="m" horiz-adv-x="834" d="M692 18Q682 13 674 9T654 5Q615 34 614 106T644 289Q649 292 649 301L640 311Q636 311 633 310T627 303Q601 284 570 264T506 226T438 197T370 186Q286 186 244 271L236 286L228 273Q225 269 219 257T207
228T197 196T193 167Q184 158 174 146T159 119Q157 111 161 104Q159 95 152 90Q148 85 144 81T136 71Q134 66 134 61T132 51Q132 44 130 38Q113 3 103 -7T76 -18Q68 -18 50 -15Q37 -1 27 23T11 76T5 132T15 182Q15 183 23 202T43 251T72 317T104 388T134 452T159
496Q167 508 173 518T186 539Q204 570 220 590T269 623Q291 614 301 602L303 591Q307 581 315 581Q326 578 333 576T350 571Q357 563 363 552Q371 540 378 529T390 506T395 482T391 457L392 447Q397 438 394 422Q393 415 393 408T395 391Q413 377 427 377Q443 377
456 384T482 400Q490 406 498 410T514 416Q532 433 546 446T577 472Q607 496 635 524T680 594Q690 600 701 600Q712 600 724 595T747 585Q750 583 752 582T757 580Q757 570 765 563Q769 560 770 559T773 557Q788 549 792 541Q799 518 817 506Q815 496 817 488T824
470Q825 467 826 464T829 457L810 459L813 440Q815 426 811 409T800 382Q801 356 801 342T800 315T795 291T785 267Q789 203 771 151T732 52Q730 47 728 42T723 32Q714 29 707 26T692 18Z" />
<glyph unicode="n" glyph-name="n" horiz-adv-x="578" d="M205 182Q196 180 192 172T185 154T178 138T167 130Q166 122 162 116T153 104T147 90T149 72Q141 66 139 55T135 34T126 17T104 11Q101 7 103 6T106 -1Q95 1 90 -2T76 -7Q57 -1 45 14T23 47T6 85T-9 118Q-6
129 -8 139T-15 157Q34 261 92 379T202 612Q225 603 247 592T288 565T320 531T337 487Q335 481 333 482T328 481Q332 476 332 474T333 470T332 465T335 455Q331 456 330 454T323 454Q327 443 326 436T321 424T316 412T317 395Q314 395 313 394T310 391T308 388T303
387Q306 365 305 343T304 299T304 252T311 201Q347 222 368 255T403 329T424 417T439 513Q448 522 453 535T462 562T470 591T480 618Q495 616 505 609T525 593T544 577T569 567Q581 550 591 534T604 500Q599 492 597 482T591 462T583 444T569 429Q566 403 562 382T553
339T545 296T543 246Q535 223 526 197T512 150Q496 137 487 119T468 83Q464 79 463 81T456 84Q457 80 456 78T454 75T452 70T453 62Q439 56 428 45T405 25T375 13T329 20Q288 50 257 89T205 182Z" />
<glyph unicode="o" glyph-name="o" horiz-adv-x="644" d="M583 300Q582 288 585 277T592 256T601 234T607 212Q609 198 607 182T600 150T587 122T568 103Q554 85 534 75T497 51Q486 44 473 41T445 35Q434 29 419 23T388 11T356 3T328 1Q298 -10 270 -13T203 -9Q167
-14 137 -6T83 19T42 61T13 113Q5 170 17 216T51 302T103 375T159 441Q165 439 168 441T175 448T181 457T190 462Q197 477 210 484T232 506Q241 508 247 512T258 521T270 530T284 537V548Q302 556 310 566T331 592Q340 593 345 593T362 595Q370 609 376 616T396
631Q408 625 422 623T448 610Q449 600 454 595T465 585T476 575T484 561Q488 560 489 562T495 563Q498 549 502 545T510 527Q505 517 503 507T490 491Q489 484 494 484T500 478Q501 469 497 465Q521 426 540 383T583 300ZM458 205Q462 216 468 223T476 244Q471
252 470 256T469 271Q447 302 431 337T395 404Q393 400 388 396T377 398Q375 390 370 387T359 383T347 386T335 393Q306 370 277 348T225 297Q221 295 220 295T214 294Q206 275 195 260T172 228T153 194T144 152Q161 138 184 135T231 134T279 140T323 145Q365 155
395 171T458 205Z" />
<glyph unicode="p" glyph-name="p" horiz-adv-x="537" d="M377 620Q419 615 452 603T508 571Q524 546 538 517T560 457T568 392T553 325Q524 289 483 267T393 230T294 206T193 186Q194 163 194 138T189 87T175 37T151 -7Q134 -7 116 -11T84 -19Q77 -15 72 -12T56
-7Q58 3 51 13T37 35T28 56T37 75Q30 82 30 93Q37 105 42 126T51 167T53 205T33 230Q34 232 37 232T43 233Q35 239 34 250T26 269Q28 274 29 278T36 281Q33 299 36 315T47 345T64 374T83 402Q90 403 91 400T98 401Q111 411 116 422T121 447Q128 468 138 489T160
529T186 561T217 582Q229 592 247 600T286 613T328 618T368 614Q373 612 373 616T377 620ZM336 381Q361 392 389 398T437 423Q425 434 402 442T352 453T298 449T250 424Q244 406 240 396T229 370Q231 365 235 363T242 355Q265 367 288 368T336 381Z" />
<glyph unicode="q" glyph-name="q" horiz-adv-x="640" d="M421 49Q360 22 291 5T144 -17Q102 -5 68 14T11 66Q12 80 10 90T6 110T3 129T5 152Q3 160 0 167T-5 182Q-3 220 10 250T42 306T83 352T127 394Q132 389 134 392T144 394Q144 399 148 406T159 420T172 431T187
434Q196 450 213 461T247 485T279 511T296 546H313Q302 562 303 578T313 604T340 617T379 609Q389 607 392 612T402 619Q440 602 470 578T525 523Q523 518 518 517T518 510Q547 474 569 434T611 348Q616 314 614 281T604 209Q590 180 569 159T531 112L546 79Q545
73 548 65T555 49T561 33T560 20Q563 15 571 17Q568 16 566 11T574 7Q572 -2 567 -13T552 -35T529 -53T501 -61Q484 -52 475 -44T452 -23L421 49ZM226 287Q190 257 160 217T112 129Q120 125 130 124T150 121Q198 135 248 147T346 176Q327 199 310 221T282 265Q285
270 287 277T292 290T301 302T317 307Q332 301 352 300T390 296Q407 284 419 268T444 234Q462 251 475 271T496 317Q491 330 484 347T466 379T444 407T418 425Q411 426 409 423T399 421Q354 389 309 358T226 287Z" />
<glyph unicode="r" glyph-name="r" horiz-adv-x="554" d="M161 104Q150 64 142 44T116 1Q103 3 98 -2T87 -11Q78 -13 74 -11T67 -7T60 -2T46 1Q44 9 42 16T28 21Q30 29 29 34T27 44T24 53T25 65Q20 65 17 72T10 86Q13 104 16 120T23 150T31 178T28 207Q32 204
34 208T37 220T38 235T37 248Q47 274 53 301T65 356T77 409T93 457Q104 459 117 455T134 443Q160 463 180 491T221 547T267 595T332 620Q352 605 376 590T417 549Q425 545 430 541T444 531V519Q456 508 463 494T477 463T489 430T503 398Q501 393 501 390T502 382T505
374T505 363Q502 319 477 292T415 248T338 218T264 192Q264 188 267 188T270 183Q294 168 308 159T334 144T361 134T402 123Q428 117 442 114T469 108T493 104T529 100Q538 91 544 79T553 54T554 30T547 11Q548 8 551 8T559 8Q553 4 549 -2T541 -14T532 -24T518
-30Q487 -42 440 -32T321 7Q285 21 263 31T224 52T194 75T161 104ZM304 447Q293 431 280 418T254 392T231 362T217 323Q252 327 290 342T362 372Q358 403 341 422T304 447Z" />
<glyph unicode="s" glyph-name="s" horiz-adv-x="475" d="M16 450Q23 471 38 486T72 511T111 529T149 541Q189 558 234 573T327 601T425 616T530 604Q533 594 539 585T551 567T563 550T569 532Q579 523 585 513T587 485Q577 477 568 471T547 459Q510 468 472 465T404
460Q395 469 383 469T357 465T330 457T304 455Q294 447 280 445T248 440Q247 435 250 434T251 427Q257 420 266 417T286 411T305 404T316 389Q331 389 342 382T360 365T370 344T374 323Q377 315 381 316T390 312Q393 299 405 286T424 256Q426 231 427 212T420 172Q405
135 379 106T319 55T247 16T173 -11Q169 -10 165 -11T163 -6Q155 -13 146 -15T125 -17T103 -15T81 -16Q74 -9 69 -3T60 14Q55 14 55 19T52 24Q58 34 58 35T55 38T50 40T49 45Q53 53 52 63T50 85T51 106T66 122Q100 118 130 124T188 143T239 169T288 194Q291 203
296 209T308 220T319 231T326 246Q327 253 323 254T318 262L307 265Q288 276 264 283T223 300Q212 294 203 297T178 303Q144 305 113 310T52 328Q50 333 47 337T36 339Q30 347 24 354T13 371Q15 383 16 391T10 408Q14 421 16 429T16 450Z" />
<glyph unicode="t" glyph-name="t" horiz-adv-x="491" d="M569 481Q544 481 515 478T458 470Q438 467 420 465T386 462Q379 440 372 423T357 390Q349 373 343 356T330 318Q320 302 314 289T303 258Q291 243 285 227T276 198L272 186Q266 180 265 177T260 170Q259
159 253 148Q251 143 250 139T249 132Q249 122 244 119Q245 114 244 109T242 98Q239 86 240 79Q243 75 245 72T249 64Q255 60 258 59Q262 56 270 52L279 42Q284 13 270 -4Q255 -23 219 -23H207Q202 -18 201 -15Q193 -12 188 -10T179 -2Q166 4 158 8L149 13Q149
24 149 25Q142 34 139 45T133 67Q131 76 129 84T122 98Q120 156 133 196T160 273Q168 293 176 313T190 356L199 366Q206 382 210 392T220 414Q223 421 225 427T230 439Q224 439 219 439T209 437Q203 436 198 436T188 435Q181 435 178 436Q167 431 154 431H144Q141
431 139 431T134 432Q124 432 118 429Q106 429 95 429H85Q83 429 80 429T75 428Q68 428 60 429T43 436Q31 452 27 453L18 465Q17 471 15 476T11 489Q7 499 4 510T0 538Q1 546 4 550T9 557L12 572L25 571H53Q85 571 118 573T186 579Q206 581 226 583T269 587Q273
596 277 604L287 609Q305 610 312 605T325 594Q347 596 369 598T415 605Q449 610 483 614T550 618Q564 618 577 617T601 614L611 607Q614 601 619 596T631 586Q643 575 655 560T664 516Q656 504 652 502L643 490L633 491Q627 491 622 490T612 486Q608 484 604 483T595
480Q586 480 581 480T569 481Z" />
<glyph unicode="u" glyph-name="u" horiz-adv-x="599" d="M590 569Q592 547 597 531T608 500Q613 486 617 473T624 440Q616 414 613 392T605 346Q589 311 574 284T550 237Q545 232 542 226T534 212Q532 209 529 203T524 195L504 202L500 177L486 173L476 161Q457
128 436 106T389 66T329 33T253 0Q236 2 224 2T200 4Q181 4 153 7Q150 15 144 18T133 21Q116 29 108 44T91 78Q86 89 81 98T70 118L87 123L65 147Q63 150 60 152T55 158L54 174Q51 243 51 300T67 403V414Q70 436 73 450T78 478Q81 500 87 519Q101 522 108 530T120
546Q134 547 139 542T149 526Q154 517 161 506T184 489Q186 481 189 473T197 454Q205 437 211 419T219 383Q209 364 204 339T197 289T197 240T206 200L212 187L229 189Q259 197 283 206T329 229T369 259T409 300Q430 323 445 352T471 414T487 477T495 537Q512 543
512 561L510 572Q506 578 510 586Q516 605 538 615Q554 605 566 593T590 569Z" />
<glyph unicode="v" glyph-name="v" horiz-adv-x="497" d="M333 176Q332 162 327 150T313 126T296 104T277 85Q280 72 278 66T276 46Q261 6 231 -7T173 -2Q162 6 155 18T134 34Q137 51 131 68T118 86Q115 107 109 131T98 179T90 227T87 271Q88 281 84 289T77 308Q73
331 74 356T76 405Q76 427 74 452T69 501T67 544T72 575Q78 587 88 594T108 611Q130 609 143 593T153 563Q174 550 186 530T206 484T217 430T222 374T226 321T234 278Q271 331 296 372T347 452T405 529T488 617Q498 616 504 613T516 608T528 605T547 605Q551 595
553 591T556 582T560 570T569 550Q572 547 571 542T570 533T569 526T574 526Q571 512 564 501T557 473Q534 443 507 411T452 345T399 274T356 195Q351 195 349 192T344 186T340 179T333 176Z" />
<glyph unicode="w" glyph-name="w" horiz-adv-x="845" d="M563 -13Q528 3 508 34T467 103Q464 109 461 115T455 126L441 152L433 168L421 157L403 141L393 131Q367 107 341 84T285 42T223 12T152 -1L130 10Q111 20 98 28T68 53Q63 62 60 70T52 86Q41 106 34 122T20
158Q23 172 29 205T43 279T61 359T81 430Q90 456 101 485T126 538T156 580T190 601Q195 594 201 591T212 586Q226 566 239 552T271 524Q266 499 257 469T237 408T216 348T200 298Q194 281 190 260Q181 223 173 159Q185 162 199 172T226 193Q241 205 256 220Q275
239 288 255T312 288T336 325T365 374Q380 398 396 425T429 478T462 525T491 558Q499 548 511 539T538 525Q544 516 549 509T560 495Q566 486 571 478T582 462Q581 455 579 444T575 420T569 394T563 368Q555 330 551 311T546 281T544 263T543 242Q542 232 544 222Q545
213 548 203T556 185L596 216Q613 229 628 251T658 303T687 368T715 439Q736 492 757 542T799 619Q821 605 837 591T866 559T885 520T896 468Q878 433 862 396T830 322Q810 274 789 226T741 135T683 55T609 -7Q598 -4 590 -4Q574 -4 563 -13Z" />
<glyph unicode="x" glyph-name="x" horiz-adv-x="519" d="M347 26Q332 76 304 122T249 201Q208 170 172 133T105 52Q103 31 100 18T90 -5T71 -20T41 -34Q8 -10 -7 25T-11 96Q-10 121 1 145T29 190T65 231T101 268Q104 278 112 285T130 300T149 315T165 334Q158
357 138 380T101 429Q99 434 94 432T86 433Q88 446 81 461T62 487Q65 498 69 513T67 548Q67 556 70 563T76 577T81 590T80 603Q93 605 103 602T122 595T138 589T154 590Q153 585 154 583T157 580T161 578T163 573Q179 568 198 552T234 515T266 475T287 445Q311
460 339 480T397 523T457 564T517 596Q534 588 543 577T559 553T571 527T585 503Q577 486 568 475T554 448Q533 439 504 421Q478 405 441 378T350 306Q362 292 370 279T383 257Q388 246 392 237Q401 230 407 221T418 203T431 185T449 171Q455 141 466 118T476 69Q469
46 456 31T436 0Q427 -3 418 -6T404 -15L347 26Z" />
<glyph unicode="y" glyph-name="y" horiz-adv-x="410" d="M320 262Q313 256 308 248T298 230Q293 219 287 209T272 191Q267 176 262 168T246 148Q236 108 199 61Q198 52 194 44T184 27Q182 24 180 21T177 15L175 5Q170 -3 164 -9T153 -20Q151 -23 146 -28L131
-34Q58 -24 42 44L43 54Q45 59 46 64T50 76Q54 90 59 104T76 129Q78 136 85 151T109 198Q123 222 131 236T144 258Q134 274 120 287Q107 312 98 335T83 376Q82 389 80 398T76 417Q73 428 71 439T69 462Q64 469 63 476L65 486Q68 493 66 504T61 528Q59 538 57 550T55
574T61 596T80 615L97 616Q106 611 114 607T131 597Q142 592 152 587T173 574L180 560L193 549V538Q194 534 194 527Q194 514 198 511L202 499Q202 485 205 473T211 449Q214 438 217 426T218 400Q224 403 228 407Q230 409 232 410T236 413L295 493L293 503L314
523Q322 531 329 538T342 553L353 561Q385 611 444 623L458 625L462 612Q466 601 478 592T505 575L514 569Q519 559 519 554T518 545L522 535Q514 511 503 500T480 480Q471 472 464 466T452 449L445 441Q424 429 418 409L415 397H403Q402 397 399 394T388 376Q381
366 378 363T373 358Q372 354 371 351T367 342Q354 329 351 323T344 308Q340 300 337 293T325 277L320 262Z" />
<glyph unicode="z" glyph-name="z" horiz-adv-x="561" d="M108 -39Q103 -37 97 -35L85 -13L69 -25Q62 -21 58 -18T49 -9Q38 -1 30 7T21 24L20 34L10 36Q5 50 2 56T-8 67Q-14 117 -4 150T26 222Q38 226 47 233T65 247Q73 254 81 259T96 266L105 271Q122 291 146
306T196 338Q217 350 238 363T277 393Q285 392 291 396Q295 401 295 409Q297 411 299 412T304 416Q311 421 323 428T339 446L361 467L331 466Q308 465 283 463T239 459Q224 457 208 457T173 455Q142 475 129 514T127 592Q134 593 139 595T149 600Q158 601 161 600T169
599Q197 604 215 605T250 607Q267 607 283 606T314 599Q349 599 385 602T459 597Q486 606 512 602T559 578Q560 561 567 553T587 540Q595 511 589 489T567 450T532 420T491 394Q485 385 477 380T461 366Q428 324 386 293T298 232Q266 211 235 190T174 143L164 134L173
124Q185 112 201 112Q210 112 218 114T235 120Q243 122 249 124T260 127H273Q281 132 289 135T305 140Q313 142 320 144T335 151Q357 151 376 157T416 171Q428 176 439 180T463 186Q467 181 472 178T483 171Q496 163 497 156L500 128L519 147Q531 137 532 125T529
92Q497 60 449 42T347 7Q336 4 325 1T302 -6L303 11L281 -3Q277 -6 275 -9T270 -15Q244 -22 227 -25T195 -31Q178 -35 163 -37T131 -40Q126 -40 120 -40T108 -39Z" />
<glyph unicode="{" glyph-name="braceleft" horiz-adv-x="459" d="M509 -32Q527 -37 532 -46T536 -66T526 -88T512 -109Q503 -107 495 -113T481 -127Q454 -123 427 -126T376 -132Q372 -132 372 -136T370 -142Q341 -132 310 -134T247 -144T181 -159T113 -169Q100
-160 92 -147T78 -118T69 -86T62 -54Q61 -43 65 -37T76 -25Q90 33 109 91T145 206Q150 221 152 234T159 262Q138 276 116 293T74 322Q75 330 64 340T41 351Q42 365 35 375T23 400Q15 432 29 460T72 494Q81 489 86 490T99 485Q113 499 132 512T169 520Q170 524 172
526T177 529T182 532T185 539Q200 543 214 548T243 562Q251 592 258 620T273 676T286 736T299 805Q300 823 297 838Q295 847 293 853T286 863Q294 865 298 876T298 892Q314 897 332 898T369 901T403 905T431 915Q481 917 535 919T636 924Q652 919 675 919T720 915T761
903T786 869Q801 867 807 862T816 848T817 830T816 810Q791 791 747 784T655 773T562 770T491 766Q477 764 464 763T440 759Q434 730 424 684T403 593T384 514T372 476Q369 472 356 466T322 451T276 428T222 399Q232 390 250 380T287 359T319 339T335 325Q336 319
335 311T332 293T327 277T325 269Q310 222 300 189T281 126T263 67T241 -1Q258 2 289 5Q315 7 358 9T467 11Q468 1 475 -3T489 -11T503 -18T509 -32Z" />
<glyph unicode="|" glyph-name="bar" horiz-adv-x="340" d="M234 321Q226 302 219 275T204 221T185 167T158 124Q156 119 159 115T165 105Q154 96 149 85T142 63T139 41T134 21Q126 17 119 11T106 -1T91 -12T72 -19Q52 -12 41 -5T13 11Q1 29 1 50T6 92T23 132T43
165Q50 181 57 197T72 233T88 275T102 314Q102 332 113 363T138 427T161 490T167 534Q179 552 189 587T211 657T239 721T279 756Q306 727 319 694T340 616Q335 602 326 579T306 526T282 466T260 407T242 356T234 321Z" />
<glyph unicode="}" glyph-name="braceright" horiz-adv-x="493" d="M452 404Q452 390 459 380T470 356Q478 323 464 296T421 262Q412 267 407 266T394 271Q380 257 362 244T324 236Q322 227 316 227T308 217Q293 213 282 205T257 188Q246 152 237 124T220 67T201
9T177 -62Q176 -74 169 -86T153 -109Q144 -107 137 -113T122 -127Q95 -123 68 -126T17 -132Q13 -132 13 -136T11 -142Q-18 -132 -49 -134T-112 -144T-178 -159T-246 -169Q-259 -160 -267 -147T-280 -118T-290 -86T-297 -54Q-297 -40 -291 -34T-279 -21Q-256 -20
-238 -18T-202 -13T-168 -8T-130 -5Q-123 -1 -105 1T-62 6T-12 9T39 10Q51 52 65 92T91 173Q98 198 105 224T119 273Q122 277 135 284T170 302T217 326T271 356Q261 365 243 375T206 396T174 416T158 431Q156 436 159 447T166 469T173 490T177 501Q186 535 196
565T215 626T233 693T249 772Q210 776 177 776T123 772Q75 764 49 758T13 746Q-4 747 -14 753T-30 770T-40 792T-51 817Q-47 826 -49 842T-59 867Q-52 869 -49 880T-48 897Q-33 902 -17 903T15 906T45 910T71 920Q115 922 162 925T252 930Q267 925 287 925T326
921T362 909T385 876Q398 874 403 869T411 855T413 837T412 817Q403 790 398 762T385 701T369 633T352 564Q348 549 343 528T334 493Q356 479 378 462T420 433Q419 425 429 416T452 404Z" />
<glyph unicode="~" glyph-name="asciitilde" horiz-adv-x="595" d="M33 219Q18 220 9 226T0 244Q0 254 9 262Q15 277 21 286T35 306Q45 320 55 334T77 362Q83 367 87 369Q98 377 109 384T134 397Q159 406 183 406T224 406Q238 405 250 404T272 400Q287 393 296
387T315 373Q326 367 332 361T344 347Q347 343 356 334T378 325Q390 325 398 336T416 355Q424 376 442 387Q450 391 455 392T466 394Q469 395 472 395T477 397L488 398H501Q518 403 531 403Q546 402 555 396T564 378Q564 367 555 360Q549 344 543 335T529 316Q519
302 509 288T486 260Q482 255 476 253Q466 245 455 238T430 225Q404 216 381 216T340 216Q326 217 314 218T291 222Q277 229 267 235T248 248Q237 255 231 261T220 275Q217 279 207 288T186 297Q175 296 166 286T147 267Q141 247 122 235Q114 231 109 230T98 228Q95
227 92 227T87 225L76 224H63Q46 219 33 219Z" />
<glyph unicode="&#xa0;" glyph-name="uni00A0" horiz-adv-x="379" />
<glyph unicode="&#xa1;" glyph-name="exclamdown" horiz-adv-x="267" d="M-9 45Q-9 54 -7 67T-2 92T-1 115T-10 129Q8 182 14 218T25 287T36 355T61 443Q72 475 88 487T123 500T160 490T195 468Q198 449 196 422T189 364T181 307T175 260Q165 249 161 242T156
227T153 207T148 173Q146 162 149 154T151 137Q149 133 145 131T138 124Q135 111 137 104T133 85Q129 77 121 60T115 23Q106 16 99 8T82 -8T63 -21T37 -27Q29 -17 26 -7T18 13T9 30T-9 45ZM90 613Q87 629 84 643Q91 664 98 681Q100 688 101 690T102 693T102 695T101
704L105 717Q110 723 117 727T131 734Q134 736 137 737T143 741L146 753L159 755Q176 759 188 759H200Q212 748 219 742T234 731Q244 717 245 711T248 698Q249 684 253 681L267 667L255 658L266 639Q254 630 248 626T238 618T229 606T213 583L204 570L191 578Q187
580 174 582T150 588Q133 592 118 594T94 606L90 613Z" />
<glyph unicode="&#xa2;" glyph-name="cent" horiz-adv-x="500" d="M319 106Q305 107 291 108T263 111Q261 101 261 100Q250 91 246 80T239 58T236 36T231 16Q223 12 216 6T203 -6T188 -17T169 -24Q149 -17 138 -10T110 6Q100 21 98 38T99 72T110 106T126 137H136Q130
138 125 141Q116 149 107 157T82 169Q60 185 46 208T23 258T13 313T11 366Q25 404 50 432T102 487Q114 492 120 497T133 508T147 517T159 529Q185 534 203 546T240 569Q249 592 256 621T274 678T298 725T333 751Q357 725 370 697T390 631Q394 631 397 629T402 624T407
622T411 626Q416 626 414 622T411 616Q419 617 424 613T440 608Q444 604 442 602T440 595Q468 587 475 570T476 535T454 502T417 482Q372 471 333 458T268 419Q246 413 229 403T196 381T168 356T139 330Q140 318 135 312T125 298Q127 284 132 275T142 256Q204 239
273 235T411 230Q418 221 426 214T442 199T454 180T457 156Q443 144 428 134T397 112Q382 110 360 112T319 106Z" />
<glyph unicode="&#xa3;" glyph-name="sterling" horiz-adv-x="601" d="M492 106Q459 102 419 94Q400 90 387 88T361 85T337 83T306 82Q300 82 295 82T283 83Q281 79 278 78T272 77Q262 78 259 81Q231 76 208 75T166 73H131Q125 74 117 74Q115 74 113 74T105 76Q91
78 80 79T57 81L42 80L39 90L31 100Q29 105 25 109T16 118Q6 127 -3 140T-10 179L-3 189Q2 191 9 198L17 206Q29 207 36 207T52 208Q64 208 75 208T100 206Q105 232 109 251T119 291Q109 292 101 290T88 285Q71 286 61 292T45 306T35 326T24 348Q28 356 26 370T16
393Q23 394 26 404T27 419Q42 423 58 424T90 427T120 430T145 439H155Q167 475 180 508T208 570Q233 599 257 620T310 650Q325 653 336 655T359 660Q364 662 368 662T378 665Q393 662 406 661T431 659L444 656Q454 652 459 650T468 647T478 645T496 643Q511 648
523 648Q532 648 541 645T561 634T579 611T595 572Q593 552 590 539T583 517Q568 507 560 505T543 503Q525 503 508 509T474 522Q466 525 463 526T458 529T453 530T443 530Q439 530 436 530T427 528Q413 533 404 533Q399 533 393 531T379 527Q373 525 369 524T359
522L351 514Q343 511 339 507T331 498T325 487T317 474Q313 469 310 465T301 455Q308 446 314 446T327 447Q342 442 362 442T402 439T438 428T460 398Q473 397 479 392T487 380T489 364T488 346Q471 334 444 327T385 317T320 313T258 311Q252 283 248 257T240 210Q273
210 288 210T317 212T344 217T380 224L394 227Q410 235 424 241T453 247Q478 247 496 227Q514 217 517 194Q522 188 521 181Q524 169 524 160T525 142L524 128L512 129Q507 124 505 122T502 115L492 106Z" />
<glyph unicode="&#xa4;" glyph-name="currency" horiz-adv-x="522" d="M512 468Q505 454 497 445T486 421Q469 415 447 401T402 370Q407 361 412 352T422 334L424 323Q424 318 426 312T430 299Q436 287 439 272Q442 251 434 226T409 188Q407 186 405 184T400 180Q406
159 414 141T421 104Q415 85 404 73T388 47Q380 45 373 43T360 35L313 69Q304 98 289 127Q271 121 253 121Q240 117 227 114T199 111Q185 111 170 114Q166 114 163 114T154 113Q142 113 130 116Q125 110 121 104T111 91Q109 56 98 43T57 19Q30 39 18 68T14 127Q15
145 21 161T39 194L35 206Q30 239 36 267T53 319T79 363T110 401Q106 409 102 408T95 409Q97 420 91 433T75 454Q78 463 81 476T79 505Q79 512 81 518T86 530T90 541T90 551Q100 552 108 550T124 544T138 539T152 540Q150 532 154 532T159 526Q170 523 183 513T209
488Q220 498 223 501T232 512L248 523L258 524Q263 531 267 535T280 545L298 546Q313 541 320 539T335 529L340 518Q348 513 352 509T359 499L367 493Q389 509 411 523T455 545Q469 539 477 529T490 509T499 488T512 468ZM297 288Q297 297 297 301Q292 308 288
315T280 331Q278 336 276 339T272 347Q264 343 260 343Q256 343 250 345Q233 332 225 325T208 308Q199 299 196 295T190 285Q185 278 181 272T175 258Q181 255 191 255Q197 255 204 256T219 258Q229 260 235 260Q239 264 246 264Q256 265 266 269T287 280Q297 287
297 288Z" />
<glyph unicode="&#xa5;" glyph-name="yen" horiz-adv-x="577" d="M161 641Q170 636 178 632T195 623Q206 617 216 612T237 600L246 594Q245 583 246 581T248 577L258 563V552Q258 544 259 541T262 536L267 524Q267 510 269 498T276 474Q279 463 281 451T283 425Q289
429 293 432Q295 434 301 438L359 518L358 528L379 548Q387 556 394 563T407 578L418 586Q450 636 509 648L523 651L527 637Q531 626 543 617T570 600L579 594Q584 584 584 579T583 570L587 560Q578 536 567 525T545 505Q536 497 529 491T516 474L509 466Q489 454
483 434L480 422H467Q466 422 463 419T453 401Q446 391 443 388T438 383Q436 379 435 376T432 367Q423 357 417 349Q432 348 446 347T473 341T495 328T510 305Q525 304 531 299T540 286T542 270T541 252Q526 242 504 236T454 225T398 220T339 218Q332 201 327 193T311
173Q301 133 264 86Q263 77 259 69T249 52Q244 45 242 40L239 30Q234 22 229 16T218 5Q216 3 214 1T210 -3L196 -9Q123 1 107 69L108 79Q110 84 111 89T115 101Q119 115 124 129T141 154Q143 160 148 172T166 207Q108 198 92 191Q73 192 62 198T44 213T32 233T20
256Q24 264 22 279T10 301Q18 303 22 313T22 328Q38 332 56 333T93 336T127 339T155 348H167Q161 362 156 376T148 402Q147 414 145 423T141 442Q138 453 136 464T134 487Q129 493 128 501L129 511Q133 518 131 529T126 553Q123 563 121 575T120 599T126 621T145
640L161 641Z" />
<glyph unicode="&#xa6;" glyph-name="brokenbar" horiz-adv-x="309" d="M157 545Q169 563 178 596T198 662T224 723T264 756Q291 727 304 694T325 616Q317 593 300 551T262 456Q261 448 261 441T258 426Q250 422 245 416T233 404T220 393T203 384Q184 389 173
395T146 408Q134 423 132 440T133 476T143 511T158 543L157 545ZM97 301Q111 304 126 300T156 287T180 268T193 251Q195 243 192 229Q190 216 182 195T158 140Q157 135 153 123T149 105Q138 96 134 85T127 63T124 41T119 21Q110 17 104 11T90 -1T75 -12T56 -19Q36
-12 25 -5T-3 11Q-15 29 -15 50T-9 92T7 132T27 165Q47 220 59 245T80 283Q90 297 97 301Z" />
<glyph unicode="&#xa7;" glyph-name="section" horiz-adv-x="646" d="M548 5Q538 1 532 -7T517 -22Q408 -57 308 -79T104 -97Q95 -89 85 -83T59 -73Q54 -62 47 -54T32 -37T18 -19T10 5Q17 10 17 12T28 21Q30 25 29 27T27 30T24 33T24 39Q42 47 56 59T91 78Q103
71 120 70T148 60Q161 62 167 61T188 60Q224 64 251 68T309 81Q326 80 339 82T360 96Q322 125 274 143T179 184Q165 196 148 208T116 226Q110 241 98 253T73 276T53 301T48 335Q46 342 40 344T36 356Q47 404 77 442T153 498Q124 517 106 547T85 619Q90 642 95 662T97
703Q108 708 114 716T129 731Q237 766 337 788T542 806Q551 798 561 791T587 782Q592 771 599 763T614 746T628 727T636 703Q632 701 631 700T629 697T625 693T618 688Q616 684 616 682T618 679T621 676T622 670Q604 662 590 649T555 631Q543 638 525 639T497 649Q485
646 479 647T458 649Q422 644 395 641T337 628Q320 628 307 626T286 613Q304 598 326 587T372 565T420 546T467 525Q481 513 498 501T530 483Q536 467 548 456T573 433T593 407T598 374Q600 367 605 364T610 353Q599 305 569 267T493 211Q522 191 540 162T561 90Q556
67 551 47T548 5ZM345 316Q370 328 398 336T450 356Q448 366 440 371T421 380T401 388T386 401Q368 400 349 396T312 386Q309 388 307 389T301 392Q276 381 248 373T196 353Q198 342 206 337T225 328T244 320T259 308Q278 309 297 313T333 322Q337 321 339 320T345
316Z" />
<glyph unicode="&#xa8;" glyph-name="dieresis" horiz-adv-x="773" d="M669 674L670 663Q663 651 659 643T652 626Q641 615 635 613T624 608Q613 604 609 600L599 585L589 594L574 580Q563 589 558 593T549 601T537 607T513 618L499 623L503 636Q505 641 505 654T505
676Q506 692 505 706T510 731Q531 742 543 746Q553 745 562 744T580 742Q587 741 589 741T591 740T594 740T602 743L614 741Q621 738 625 733T635 722Q639 714 643 712L655 711L659 699Q664 689 665 685T669 674ZM370 713Q381 701 392 691T405 669Q401 653 399
647T393 634Q380 623 363 611Q357 606 355 605T353 604T352 602T348 594L338 587Q330 584 323 584T309 586Q306 586 302 586T295 587L287 579L275 584Q264 589 260 590T250 596L241 602Q237 617 235 625T228 642Q228 659 230 665T234 676Q240 687 239 692L235 710L250
711V732Q264 733 271 733T284 734T297 739T322 749L336 755L342 742Q344 738 353 729T370 713Z" />
<glyph unicode="&#xa9;" glyph-name="copyright" horiz-adv-x="629" d="M458 709Q497 692 524 668T580 612Q592 586 601 556T620 500Q625 458 624 422T620 358Q620 347 610 348Q605 313 587 288T546 238L464 162Q441 152 420 141T375 120T326 108T270 113Q265
112 262 111T251 111Q234 115 220 119T187 130Q181 132 178 136T169 143Q129 157 105 180T63 228T35 280T21 329Q18 389 31 437T70 529H80Q79 531 76 531T71 534Q74 542 79 549T91 562T101 577T107 595Q128 610 143 628T173 665Q189 668 201 680T224 703Q233 704
244 708T266 715T289 718T312 715Q319 728 337 735T377 743T421 735T458 709ZM508 334Q521 360 528 387T535 444T525 510T496 589Q501 589 499 592T492 600T486 606T490 606Q482 613 478 618T470 628T465 638T457 653Q442 661 427 665T403 664L308 630Q291 624
277 618T257 599Q251 601 251 599T242 598Q202 553 172 504T122 397Q124 389 119 383T120 368Q115 368 116 366T120 360T124 354T123 351Q128 335 130 318T137 281T152 243T182 203Q198 198 216 193T252 184T284 181T306 185Q323 190 338 195T364 208Q373 214 385
219T411 230T435 244T444 265L508 334ZM462 576Q477 569 479 557T475 533T458 512T434 499Q406 494 382 487T340 463Q313 457 294 441T254 408Q252 400 249 396T241 387Q240 378 242 371T246 357Q279 342 318 336T398 326Q401 320 405 315T412 303T416 290T415
273Q405 265 395 259T374 245Q366 245 353 247T329 245Q300 249 272 258T221 279Q217 285 213 291T200 301Q189 313 184 329T178 365T178 403T184 440Q198 466 216 483T253 518Q263 527 273 531T291 544Q314 548 331 561T371 578Q382 588 396 591T420 605Q422 600
427 601T437 603Q440 603 441 602T444 598T446 596T449 599Q453 592 455 589T463 585L462 576Z" />
<glyph unicode="&#xaa;" glyph-name="ordfeminine" horiz-adv-x="465" d="M131 245Q126 239 120 236T108 229L93 217Q84 215 82 215Q74 213 64 213L43 218Q32 227 25 232L14 242Q10 251 9 256T7 265L1 273L2 295L4 310Q18 344 33 375T66 438Q71 448 75 457T85
476Q85 483 88 489Q97 504 101 512T111 529Q116 540 122 552T139 576L161 588Q169 590 177 590L188 589Q200 600 211 612T234 642L241 651L268 657L277 651Q279 650 284 649T295 647Q309 643 322 639T345 626L353 613Q356 598 358 589Q360 578 361 567T364 542Q367
531 369 520T374 498Q376 487 378 477T384 457L399 458L420 446Q430 442 435 438T445 430L465 400L459 390Q445 365 415 348Q417 335 419 322T419 294Q405 258 379 235T316 210L306 212Q299 214 294 217T286 222L274 228L263 251Q260 258 258 260T253 265L241 278L250
305Q240 303 230 302T207 300Q202 300 196 300T184 302L160 317L151 309L145 291Q142 283 140 277T138 265L134 249L131 245ZM246 464Q237 453 229 442T214 420Q225 421 235 421T256 424Q254 434 252 444T246 464Z" />
<glyph unicode="&#xab;" glyph-name="guillemotleft" horiz-adv-x="580" d="M528 430Q533 422 536 419T540 413T544 407T549 398Q547 388 547 382T547 370T548 359T549 343Q522 308 502 288T462 252T421 223T372 188Q384 174 401 164T437 140T470 106T490 53Q496
53 502 38T506 3Q501 -4 497 -11T486 -22Q481 -24 473 -20T454 -9T433 5T412 18Q401 23 390 27T369 40Q364 43 362 49T354 57Q345 60 335 68T315 86T294 106T275 124Q276 131 269 139T254 150Q254 162 249 171T242 193Q237 222 246 246T274 275Q280 271 283 271T292
267Q301 280 313 291T338 298Q339 306 343 306T349 315Q369 322 388 337T425 369T460 404T493 436Q499 432 505 436T518 440Q516 436 517 435T520 434T524 434T528 430ZM239 53Q246 53 251 38T255 3Q250 -4 246 -11T236 -22Q230 -24 222 -20T203 -9T182 5T161 18Q150
23 139 27T118 40Q113 43 111 49T103 57Q94 60 85 68T65 86T44 106T25 124Q25 131 19 139T4 150Q4 162 -1 171T-8 193Q-14 222 -5 246T24 275Q29 271 32 271T41 267Q50 280 62 291T87 298Q89 306 93 306T98 315Q118 322 137 337T174 369T209 404T242 436Q249 432
254 436T267 440Q265 436 266 435T269 434T273 434T277 430Q282 422 285 419T289 413T293 407T299 398Q297 388 297 382T297 370T298 359T298 343Q271 308 251 288T211 252T170 223T122 188Q133 174 151 164T187 140T219 106T239 53Z" />
<glyph unicode="&#xac;" glyph-name="logicalnot" horiz-adv-x="715" d="M491 214Q457 212 422 211T354 210T293 209T245 206Q182 200 147 195T98 184Q75 185 62 191T40 205T25 225T11 248Q16 256 14 271T0 294Q9 295 14 305T14 321Q34 325 56 326T99 329T140
332T174 341Q234 342 298 344T418 348Q437 343 464 343T517 340T564 329T596 302Q598 300 600 300T605 297Q622 295 628 288T636 272Q640 266 642 261Q644 253 641 239Q639 226 631 205T607 150Q606 145 602 133T598 115Q587 106 583 96T576 74T573 52T568 32Q559
28 553 22T539 10T524 -1T505 -9Q486 -1 475 6T446 21Q434 39 434 60T440 102T456 142T476 175Q483 192 486 199T491 214Z" />
<glyph unicode="&#xad;" glyph-name="sfthyphen" horiz-adv-x="623" d="M519 298Q534 296 541 291T550 279T552 262T551 244Q526 227 482 221T390 212T296 209T225 206Q172 200 142 195T101 184Q82 185 71 191T53 205T41 225T29 248Q33 256 31 271T20 294Q28 295
31 305T32 321Q48 325 66 326T103 329T137 332T165 341Q215 342 269 344T369 348Q386 343 409 343T454 340T494 328T519 298Z" />
<glyph unicode="&#xae;" glyph-name="registered" horiz-adv-x="639" d="M474 162Q452 152 430 141T385 120T336 108T280 113Q275 112 272 111T262 111Q245 115 230 119T197 130Q192 132 188 136T179 143Q139 157 115 180T73 228T45 280T31 329Q28 389 41 437T80
529H91Q89 531 86 531T81 534Q84 542 89 549T101 562T111 577T117 595Q138 610 153 628T183 665Q199 668 211 680T234 703Q243 704 254 708T277 715T300 718T322 715Q329 728 347 735T387 743T431 735T469 709Q507 692 534 668T590 612Q602 586 611 556T630 500Q635
458 634 422T630 358Q631 346 621 348Q616 313 597 288T556 238L474 162ZM317 185Q333 190 348 195T375 208Q384 215 397 219T425 232Q413 235 398 240T366 252Q345 261 333 267T311 280T294 293T276 310Q267 287 261 275T244 248Q236 250 234 247T226 241Q221
240 219 241T215 244T211 247T203 248Q202 253 201 257T193 261Q197 270 194 274T194 287Q191 287 190 291T186 300Q189 311 191 320T197 337T203 354T203 372Q205 370 207 373T210 380T211 389T211 397Q226 428 233 462T255 523Q262 524 269 522T279 514Q295 526
308 543T335 576T365 605T405 620Q416 612 430 603T452 578Q456 576 459 573T467 567Q472 554 476 545T482 526T487 507T494 488Q492 481 494 478T494 466Q490 439 474 423T435 397T388 379T342 364Q359 349 367 344T381 335T396 328T420 322Q435 318 443 316T459
313T473 310T494 308L518 334Q531 360 538 387T545 444T535 510T506 589Q511 589 509 592T502 600T497 606T501 606Q492 613 488 618T480 628T475 638T467 653Q452 661 437 665T413 664L318 630Q302 624 288 618T267 599Q261 601 261 599T253 598Q212 553 182 504T132
397Q134 389 130 383T130 368Q125 368 126 366T130 360T134 354T133 351Q138 335 140 318T148 281T162 243T192 203Q208 198 227 193T263 184T294 181T317 185ZM321 442Q342 444 365 453T410 472Q409 490 400 501T379 517Q372 507 363 499T346 483T331 465T321
442Z" />
<glyph unicode="&#xaf;" glyph-name="overscore" horiz-adv-x="773" d="M614 708Q626 702 627 694T625 675T612 655T597 637Q590 639 583 634T569 622Q549 627 528 626T489 624Q486 624 485 620T482 615Q462 626 438 626T388 621T335 611T281 606Q267 625 268
655T271 714Q274 726 280 732T292 743Q310 743 324 743T352 745T379 748T409 749Q418 752 441 754Q461 756 496 756T592 750Q591 740 595 736T604 728T612 721T614 708Z" />
<glyph unicode="&#xb0;" glyph-name="degree" horiz-adv-x="291" d="M331 548Q326 541 320 540T306 537Q295 530 278 524T247 520Q232 515 218 513T184 515Q147 510 123 529T88 576Q84 605 90 628T107 672T133 709T162 742Q167 740 170 745T178 752Q181 760 188
763T199 774Q207 776 212 782T225 790Q234 800 238 805T248 818Q253 818 256 818T264 819Q269 826 272 829T281 837Q287 834 294 833T307 827Q308 816 316 814T326 802Q333 796 335 794T339 785Q337 780 335 775T328 766Q334 757 332 753Q344 733 353 712T376 671Q374
659 379 648T387 626Q390 608 386 597T373 578T354 562T332 545L331 548ZM267 642Q269 652 269 655Q264 661 262 668T254 681Q250 677 248 677T243 679Q237 674 232 670T221 660Q216 652 211 647T206 632Q212 627 222 629T241 631Q249 633 254 636T267 642Z" />
<glyph unicode="&#xb1;" glyph-name="plusminus" horiz-adv-x="573" d="M541 462Q556 460 562 455T571 443T573 426T572 408Q557 398 534 392T484 382T428 377T370 374Q365 346 358 315T335 238Q321 207 303 195T265 182T225 191T187 213Q185 226 186 244T189
282T195 323T202 364Q170 359 151 355T123 347Q104 348 93 354T75 369T62 389T50 412Q55 420 53 435T41 457Q49 459 52 469T53 484Q69 488 87 489T124 492T158 495T186 504Q199 505 212 505T239 506Q242 519 238 527T236 544Q238 548 243 550T250 557Q254 570 252
577T256 597Q260 605 268 622T275 658Q285 665 293 674T311 690T332 703T361 709Q370 698 374 688T383 669T393 651T413 637Q413 628 410 615T405 589T404 566T414 552Q410 541 407 531T400 510Q417 507 439 507T481 503T517 491T541 462ZM469 93Q484 91 490 86T499
74T501 58T500 40Q483 29 458 22T402 12T339 7T276 5T219 4T174 1Q121 -5 92 -10T51 -21Q32 -20 21 -14T3 1T-9 21T-21 44Q-17 52 -19 66T-31 89Q-23 91 -19 101T-19 116Q-3 120 15 121T52 124T86 127T115 136Q164 137 218 139T319 143Q335 138 358 138T403 135T444
123T469 93Z" />
<glyph unicode="&#xb2;" glyph-name="twosuperior" horiz-adv-x="396" d="M431 469Q442 461 445 452T446 433Q443 418 429 407T398 396L384 389Q364 386 343 383T299 375Q270 370 241 365T181 357Q172 358 170 359Q152 359 137 361T107 369Q88 382 81 397T73 429T73
461T80 488Q111 524 139 551T206 600Q212 606 215 608Q203 606 192 604T171 600Q166 598 162 598T152 596L142 597Q136 599 127 599Q122 600 116 601T103 604Q83 617 81 631T78 656Q78 659 78 662T77 667L78 685Q84 693 87 699T96 710L106 716Q133 722 161 725T215
729Q292 729 336 699L345 687Q346 682 349 678T362 670L372 663Q380 651 384 641T390 618L389 607Q378 581 358 563T317 529Q312 525 306 522T295 516Q290 514 286 512T279 507Q277 505 276 502T270 495Q267 493 264 491T257 486Q260 487 268 487Q283 491 300 494T334
497Q363 507 386 507Q389 507 392 507T397 506Q409 503 413 499T420 491L431 469Z" />
<glyph unicode="&#xb3;" glyph-name="threesuperior" horiz-adv-x="375" d="M405 453Q403 444 400 439T395 428Q393 426 392 424T389 418L379 408Q368 402 362 395L347 387Q321 373 286 365T207 357Q197 357 187 357T166 359Q155 363 153 365L141 373Q131 384
128 388L127 407Q129 410 129 415T129 427Q129 433 130 440T134 455T142 469T158 479Q173 480 181 474Q200 475 219 476T255 480Q250 482 245 483T235 486Q209 493 184 503T148 540L147 569V580Q135 580 132 580T125 581Q117 582 109 583T92 590L83 601Q76 618
73 631T75 658L78 681Q85 688 86 688T88 690L102 704Q110 706 117 707T131 710Q169 718 205 723T284 729Q294 729 304 729T325 728L335 723Q349 712 361 698T387 665L391 654V641Q388 630 387 627T383 621L371 602Q360 595 351 588T334 574Q357 556 373 535T401
492L404 473L405 453Z" />
<glyph unicode="&#xb4;" glyph-name="acute" horiz-adv-x="773" d="M590 624Q582 622 564 610T516 572Q501 559 480 540T435 502T384 469T334 454Q327 461 320 468T309 482T303 497T308 515Q295 536 297 547T307 566T326 581T341 602Q364 627 391 653T443 707Q453
709 462 716T481 733T499 751T520 767Q522 761 531 756T546 753Q547 742 557 732T575 717Q581 703 587 692T596 669T599 647T590 624Z" />
<glyph unicode="&#xb5;" glyph-name="mu" horiz-adv-x="583" d="M58 289Q60 309 62 327T71 362V373Q74 393 76 405T81 430Q83 441 84 450T89 467Q102 469 108 477T118 492Q131 492 135 488T145 473Q149 465 155 455T176 440Q178 432 181 425T188 409Q195 393 201
376T208 345Q199 328 194 306T188 260T188 215T196 180L201 168L217 170Q244 177 265 185T306 206T342 233T379 270Q397 291 411 317T434 372T449 429T456 483Q470 489 472 505Q466 520 470 528Q475 544 495 554Q509 544 520 534T542 513Q543 493 548 479T558 450Q563
437 567 425T573 396Q565 373 562 353T555 312Q540 281 527 256T506 213Q497 204 491 190Q489 188 487 183T482 176L465 182L460 159L448 156L439 145Q422 115 403 95T360 59T306 30T238 0Q223 2 212 2T191 3Q181 4 171 4T148 7Q144 17 133 19Q129 2 124 -17T111
-59Q101 -88 87 -99T56 -110T22 -101T-9 -81Q-11 -64 -9 -39T-4 12T4 64T9 106Q18 116 21 122T25 135T28 154T33 185Q35 194 32 202T31 217Q32 221 36 222T42 228Q43 234 43 238T43 247T43 255T46 264Q48 268 51 274T58 289Z" />
<glyph unicode="&#xb6;" glyph-name="paragraph" horiz-adv-x="747" d="M138 368Q108 391 91 419T67 478T61 539T70 595Q99 632 143 653T232 696Q239 695 244 690Q251 697 261 701T283 709T306 715T326 723Q356 722 380 726T427 735T473 745T527 748Q544 756 566
757T609 761Q620 774 635 779Q637 777 639 775T644 771Q654 765 667 765T691 765Q698 765 702 761T711 754T718 750T725 753Q732 751 728 747T723 742Q734 740 741 735T764 725Q769 720 766 718T762 711Q801 695 809 677T807 642T770 613T714 600Q708 575 701 546T688
489T677 437T673 399Q669 386 664 368T653 327Q662 318 672 309T691 290T702 270T699 246Q682 239 665 234T628 224Q622 199 617 178T608 140Q610 135 615 133T624 127Q619 114 621 105T628 89T638 75T647 59Q644 50 643 41T642 23T639 5T629 -13Q609 -21 589 -21T551
-26Q530 -21 516 -6T492 30T477 71T470 109Q463 132 468 145T470 165Q471 174 475 192T486 234L432 245Q430 242 429 239T425 231Q426 226 430 223T438 215Q430 203 422 177T408 123T397 69T391 33Q377 21 370 5T341 -23Q320 -21 301 -13T263 0Q245 14 246 33T256
72T273 113T279 150Q272 173 277 186T279 206Q281 218 286 239T299 286Q272 295 246 305T197 325Q185 337 173 348T138 368ZM469 374Q483 371 496 368T524 362Q526 368 527 373T529 383Q527 399 534 428T549 489T565 551T571 598Q540 596 517 591Q511 567 504 539T490
485T481 435T477 399Q475 393 473 387T469 374ZM256 520Q254 507 246 502T228 491Q228 477 234 465T246 442Q266 434 286 427T328 412Q334 444 347 486T367 562Q338 553 311 542T256 520Z" />
<glyph unicode="&#xb7;" glyph-name="middot" horiz-adv-x="232" d="M185 426Q196 414 207 404T221 382Q216 367 214 361T208 348Q200 341 193 336T178 324Q172 319 170 319T168 318T167 316T163 308L153 300Q146 298 139 298T124 299Q121 300 117 300T111 300L102
292L91 298Q75 303 65 309L56 316Q53 330 51 338T43 356Q43 372 45 378T50 389Q55 401 54 405L51 423L65 424V445Q80 446 86 446T99 447T112 452T137 462L151 468L157 455Q159 451 168 442T185 426Z" />
<glyph unicode="&#xb8;" glyph-name="cedilla" horiz-adv-x="773" d="M597 -139Q611 -153 619 -171T623 -215Q613 -235 599 -249T563 -280Q546 -287 529 -291T498 -303Q492 -301 487 -302T478 -301Q461 -309 441 -312T398 -308Q381 -310 365 -310T334 -306T310
-296T297 -278Q280 -268 274 -251T279 -217Q284 -216 286 -215T294 -210Q335 -211 377 -210T469 -198Q472 -189 484 -187T502 -177Q502 -170 495 -169T489 -160Q479 -160 466 -156T444 -145Q427 -144 420 -143T407 -139T394 -135T372 -127Q366 -121 360 -117T348
-110T340 -101T335 -88Q336 -78 336 -71T337 -57T339 -41T344 -22Q349 -16 358 -4T380 20T408 44T438 62Q456 51 471 44T512 37L460 -41Q464 -47 472 -48T483 -55Q505 -58 519 -66T545 -85T568 -107T594 -127Q594 -131 596 -132T597 -139Z" />
<glyph unicode="&#xb9;" glyph-name="onesuperior" horiz-adv-x="211" d="M229 608Q229 603 229 599T231 589Q233 552 225 524T206 467Q204 460 202 453T196 438Q188 426 186 419T185 406L181 387Q170 376 164 370T150 358L126 359Q115 357 112 357T107 356L90
364Q78 377 71 387T66 410Q63 441 71 465T89 512Q102 545 109 574T101 632Q99 643 99 645T98 650Q98 661 96 666V680Q98 685 98 687T99 690Q100 705 104 710T110 717L129 732L145 729L156 726Q162 720 165 720L178 710Q180 705 185 702T198 693L209 683Q220 666
223 647T229 608Z" />
<glyph unicode="&#xba;" glyph-name="ordmasculine" horiz-adv-x="456" d="M12 305Q7 342 14 373T34 431T65 480T99 522Q103 526 106 530T113 538Q119 543 123 546T130 551Q139 560 143 564T151 570Q154 572 156 574T160 578L172 588Q176 589 182 594Q189 601
197 605L203 614Q211 618 214 621T223 633L240 645Q244 646 250 646Q257 653 262 658T275 668L294 669Q300 667 304 666Q310 664 318 662T334 652L339 639Q347 634 351 630T360 620L370 611Q375 601 376 598T380 588L379 575Q376 567 376 564T373 558L374 544Q381
533 386 521T398 497Q405 483 411 470T426 443L429 430Q428 425 430 419T436 405Q438 399 440 392T445 376Q448 353 440 327T413 287Q406 279 399 274T383 263Q372 258 366 252Q351 244 343 242T328 238Q311 230 289 222T246 214Q231 210 218 207T188 204Q173 204
157 207Q152 206 149 206T140 206Q98 206 65 231T14 301L12 305ZM178 390Q173 382 169 376T163 361Q169 358 179 358Q187 358 194 359T209 361L227 364Q231 367 238 367Q249 369 259 373T282 385Q285 386 291 390Q294 399 294 401T293 407Q288 415 284 423T275
440Q273 444 271 448T266 456Q258 452 253 452Q248 452 242 454Q225 441 216 433T198 415Q188 405 185 400T178 390Z" />
<glyph unicode="&#xbb;" glyph-name="guillemotright" horiz-adv-x="610" d="M287 225Q292 196 283 172T255 142Q249 146 246 146T237 150Q228 137 216 126T191 119Q191 115 190 114T186 111T183 109T180 102Q160 95 141 81T104 49T69 13T36 -18Q30 -14 24 -18T11
-23Q12 -19 12 -18T9 -17T5 -16T1 -12Q-4 -5 -7 -1T-11 5T-15 10T-20 19Q-18 29 -18 35T-18 47T-19 59T-20 74Q7 109 27 129T67 165T108 194T157 230Q145 243 128 254T92 278T59 312T39 364Q33 364 27 379T23 415Q28 421 32 428T43 439Q48 442 56 438T75 427T96
412T117 399Q128 394 139 390T160 378Q165 374 167 368T175 360Q184 357 194 349T214 331T235 311T254 293Q253 286 260 278T275 268Q275 255 280 246T287 225ZM547 225Q552 196 543 172T515 142Q509 146 506 146T498 150Q489 137 477 126T452 119Q451 115 450
114T446 111T443 109T441 102Q421 95 402 81T364 49T330 13T297 -18Q290 -14 284 -18T272 -23Q273 -19 273 -18T270 -17T266 -16T262 -12Q256 -5 254 -1T249 5T246 10T240 19Q242 29 242 35T242 47T241 59T241 74Q268 109 288 129T328 165T369 194T417 230Q406
243 388 254T352 278T320 312T300 364Q293 364 288 379T284 415Q289 421 293 428T303 439Q308 442 316 438T335 427T357 412T378 399Q388 394 399 390T420 378Q425 374 428 368T435 360Q444 357 454 349T474 331T495 311T514 293Q513 286 520 278T535 268Q535 255
540 246T547 225Z" />
<glyph unicode="&#xbc;" glyph-name="onequarter" horiz-adv-x="722" d="M664 262Q666 254 667 252T672 248L681 226Q680 222 680 215Q680 210 680 203T676 188L669 179Q657 168 643 163T614 154Q597 149 588 145Q586 140 584 136T580 127Q575 117 571 107T563
86L567 67Q574 66 578 62T585 49L583 33Q581 20 579 12T569 -6L559 -12Q551 -15 544 -15T529 -17Q523 -17 515 -19H505Q497 -17 488 -13T471 1T456 25T449 62Q446 73 447 79T450 90Q453 111 459 131Q452 132 444 132T428 133Q407 139 398 147T382 164Q379 168 373
174L366 188Q366 200 364 212T360 237Q356 260 354 281T358 320Q368 335 375 342T392 357L408 359Q419 356 425 350T435 339L453 319Q456 310 462 297Q467 289 471 279T476 254Q483 254 486 255H498H509Q511 271 513 278Q516 292 515 296L517 315Q519 320 520 326T524
341Q525 349 527 359T534 378T547 395T568 407L587 403Q624 374 636 327V316Q632 305 631 295T628 275Q632 275 635 275T643 276L663 263L664 262ZM183 430Q179 426 177 419T176 406L172 387Q162 376 156 370T141 358L117 359Q106 357 103 357T98 356L81 364Q69
377 62 387T57 410Q55 441 63 465T80 512Q94 545 101 574T92 632Q90 647 89 650Q89 661 87 666L88 680Q91 690 91 690Q91 705 95 710T101 717L120 732L136 729L147 726Q153 720 156 720L169 710Q173 703 189 693L200 683Q211 666 214 647T220 608Q220 603 220 599T222
589Q224 552 216 524T197 467Q195 460 193 453T187 438L183 430ZM556 596Q542 579 512 545T448 472T388 399T352 347Q337 332 314 304T265 246T215 185T175 136Q174 131 177 127T183 118Q173 107 171 98T170 80T173 63T173 44Q166 37 162 29T152 13T141 -2T124
-15Q103 -13 90 -10T59 -3Q42 11 36 32T31 75T37 119T47 158Q58 165 48 168Q52 183 62 192T72 210Q79 221 99 244T144 294T190 346T225 386Q231 403 253 429T299 483T343 536T364 576Q382 590 403 620T449 680T498 733T549 752Q564 715 564 679T556 596Z" />
<glyph unicode="&#xbd;" glyph-name="onehalf" horiz-adv-x="768" d="M702 109Q712 101 715 92T716 74Q713 59 700 48T671 36L658 29Q638 26 619 23T579 15Q552 10 524 6T468 -2Q461 -2 461 -2T458 -1Q423 1 399 9Q381 23 375 38T367 70T367 101T374 128Q403 164
430 191T492 241Q494 243 496 245T500 249Q489 247 479 245T459 240Q454 239 450 238T442 236L432 237Q430 238 426 238T418 240Q413 241 407 241T395 244Q377 257 375 271T372 297V307L373 325Q378 334 381 339T389 350L398 356Q424 363 450 366T500 369Q572 369
613 340L621 327Q622 322 625 318T638 311L647 303Q659 282 664 258L663 248Q652 222 634 204T595 169Q584 161 574 157Q570 154 566 152T559 147Q558 145 557 142T552 136Q547 131 539 127H550Q564 131 579 134T611 138Q640 147 660 147Q667 147 670 146Q681 143
685 139T691 131L702 109ZM183 430Q179 426 177 419T176 406L172 387Q162 376 156 370T141 358L117 359Q106 357 103 357T98 356L81 364Q69 377 62 387T57 410Q55 441 63 465T80 512Q94 545 101 574T92 632Q90 647 89 650Q89 661 87 666L88 680Q91 690 91 690Q91
705 95 710T101 717L120 732L136 729L147 726Q153 720 156 720L169 710Q173 703 189 693L200 683Q211 666 214 647T220 608Q220 603 220 599T222 589Q224 552 216 524T197 467Q195 460 193 453T187 438L183 430ZM556 596Q542 579 512 545T448 472T388 399T352 347Q337
332 314 304T265 246T215 185T175 136Q174 131 177 127T183 118Q173 107 171 98T170 80T173 63T173 44Q166 37 162 29T152 13T141 -2T124 -15Q103 -13 90 -10T59 -3Q42 11 36 32T31 75T37 119T47 158Q58 165 48 168Q52 183 62 192T72 210Q79 221 99 244T144 294T190
346T225 386Q231 403 253 429T299 483T343 536T364 576Q382 590 403 620T449 680T498 733T549 752Q564 715 564 679T556 596Z" />
<glyph unicode="&#xbe;" glyph-name="threequarters" horiz-adv-x="838" d="M94 385L81 397Q76 405 75 407T72 414L75 433Q77 436 78 441T82 452Q85 464 92 480T123 502Q139 502 144 495Q163 494 182 494T219 496Q214 498 210 499T200 503Q177 511 155 523T127
563L128 573Q130 578 131 582T133 592Q134 595 134 597T136 603Q119 605 114 605Q107 607 99 609T83 617L77 629Q74 646 74 659T83 686L91 709Q102 715 104 717L121 729Q129 730 136 731T151 733Q189 738 226 741T306 741Q316 740 326 739T346 736L356 731Q377
706 393 669L394 657L391 644Q386 634 384 631T379 625L363 607Q350 602 339 595T319 583Q337 564 348 542T366 496Q365 480 364 477L361 457Q354 441 344 433Q342 431 341 429T337 423L324 414Q311 409 304 402L288 396Q229 369 143 377Q132 378 123 379T102 382L94
385ZM773 262Q775 254 776 252T780 248L787 226Q785 223 785 221T784 215Q783 210 782 203T777 188L770 179Q756 168 741 163T711 154Q696 149 684 145Q682 140 679 136T674 127Q669 117 664 107T653 86L654 67Q661 66 664 62T670 49L667 33Q663 20 660 12T648
-6L638 -12Q630 -15 623 -15T607 -17Q601 -17 593 -19Q576 -17 567 -13T551 1T540 25T536 62Q534 73 536 79T540 90Q545 111 553 131Q547 132 539 132T523 133Q503 139 495 147T480 164Q478 168 472 174L468 188Q469 200 469 212T466 237Q464 260 465 281T474 320Q486
335 493 342T512 357L528 359Q539 356 544 350T552 339L569 319Q570 309 575 297Q579 289 582 279T585 254L607 255H618Q619 262 620 267T624 278Q629 292 628 296L632 315Q635 320 637 326T642 341Q647 358 657 378T693 407L712 403Q745 374 753 327L751 316Q742
293 739 275Q743 275 746 275T753 276L773 263V262ZM729 606Q722 596 702 576T654 531T597 479T539 426T492 379T464 347Q447 332 419 304T359 246T299 185T252 136Q250 131 253 127T257 118Q245 107 241 98T237 80T236 63T234 44Q226 37 220 29T208 13T194 -2T175
-15Q155 -13 142 -10T112 -3Q98 11 96 32T97 75T110 119T127 158Q139 165 130 168Q136 183 148 192T161 210Q170 221 194 244T247 294T303 346T344 386Q353 403 379 429T434 483T487 536T515 576Q535 590 560 618T611 675T662 725T711 743Q727 711 730 679T729
606Z" />
<glyph unicode="&#xbf;" glyph-name="questiondown" horiz-adv-x="570" d="M-34 31Q-41 39 -46 47T-61 60Q-56 85 -58 107T-61 156Q-47 232 1 277T112 339Q112 349 118 354Q138 357 148 364T166 379T186 394T222 406Q227 417 235 420T252 424T269 429T281 446L338
499Q362 493 379 493T409 492T427 480T437 442Q436 432 430 429T421 417Q421 395 414 385T398 367T377 352T358 325Q342 318 323 303T287 272Q262 258 245 249T212 229T182 207T146 177Q151 164 164 163T195 163Q224 154 251 152T316 147Q330 148 336 149T356 149Q367
159 385 162T418 174Q438 169 450 155T479 133Q480 125 476 124T473 112Q483 107 483 104T489 96Q485 80 478 69T461 47T443 26T427 3Q410 -1 399 -9T377 -28Q323 -34 272 -32T171 -21T70 0T-34 31ZM350 606Q352 621 353 628T355 641T354 656T348 683L345 699L359
703Q364 704 375 712T396 725Q410 733 422 742T448 752Q463 744 469 740T481 732Q486 723 490 714T499 696Q502 689 503 687T504 684T506 682T513 677L518 665Q520 657 518 650T513 635Q509 627 509 621L515 611L507 600Q501 589 498 585T490 576L481 568Q454 568
437 564Q420 567 415 570T405 578Q394 586 389 586H369L371 601L350 606Z" />
<glyph unicode="&#xc0;" glyph-name="Agrave" horiz-adv-x="719" d="M-26 95L-13 105L-12 126Q13 187 39 243T95 358Q104 377 113 396T132 435Q131 439 131 443T133 454Q147 474 155 490T172 523Q181 543 191 563T218 602L225 612L236 611Q240 613 244 614T256
616L274 613Q307 628 332 656T384 725L396 742L412 732Q417 729 428 726T451 719Q472 714 492 708T523 690L528 681Q530 670 531 661T535 643Q539 622 542 602T546 556Q551 536 555 516T564 475Q569 446 575 420T591 369Q601 369 603 368Q615 373 631 374L644 375L648
363Q650 360 653 357T660 351Q676 350 683 345T696 334Q698 332 701 330T706 326L724 319L714 300Q703 279 681 259T630 226Q632 219 632 213T635 199Q639 179 641 158T641 113Q631 87 618 67T586 30T544 3T496 -9Q482 -6 476 -2T464 6Q456 12 451 14L438 20L442
35Q445 43 442 49T427 65Q423 68 420 71T413 79L393 102L426 111Q456 119 466 131T474 176Q449 181 433 178T401 170Q378 164 356 160T308 155Q291 155 272 158L261 159L258 170Q258 172 256 174T251 179Q246 185 239 195T236 220Q229 231 228 243Q224 235 222
228T217 213L213 200L200 198Q198 196 197 192T196 186L200 175L190 166Q188 163 185 161T180 157Q178 146 175 136T167 116Q162 100 158 85T153 55L149 42Q144 34 137 30T122 23Q112 19 108 15L105 2L90 0Q77 -3 72 -4T59 -5L46 -4Q34 8 27 14T9 26L3 34Q-1 42
-2 48T-5 62Q-7 75 -11 80L-26 95ZM293 355Q279 335 266 313Q273 314 279 314T293 315Q328 317 358 320T423 330Q415 367 406 405T385 483L380 473Q355 446 332 415T294 356L293 355ZM306 941Q298 953 298 964T300 986T309 1008T321 1034Q329 1038 339 1048T350
1070Q355 1067 364 1072T376 1084Q387 1078 396 1069T415 1050T433 1034T453 1024Q477 997 504 971T555 919Q559 905 569 898T588 883T599 864T588 832Q594 822 593 814T588 799T576 785T562 771Q538 772 512 786T462 818T416 856T380 889Q351 915 333 927T306
941Z" />
<glyph unicode="&#xc1;" glyph-name="Aacute" horiz-adv-x="719" d="M-26 95L-13 105L-12 126Q13 187 39 243T95 358Q104 377 113 396T132 435Q131 439 131 443T133 454Q147 474 155 490T172 523Q181 543 191 563T218 602L225 612L236 611Q240 613 244 614T256
616L274 613Q307 628 332 656T384 725L396 742L412 732Q417 729 428 726T451 719Q472 714 492 708T523 690L528 681Q530 670 531 661T535 643Q539 622 542 602T546 556Q551 536 555 516T564 475Q569 446 575 420T591 369Q601 369 603 368Q615 373 631 374L644 375L648
363Q650 360 653 357T660 351Q676 350 683 345T696 334Q698 332 701 330T706 326L724 319L714 300Q703 279 681 259T630 226Q632 219 632 213T635 199Q639 179 641 158T641 113Q631 87 618 67T586 30T544 3T496 -9Q482 -6 476 -2T464 6Q456 12 451 14L438 20L442
35Q445 43 442 49T427 65Q423 68 420 71T413 79L393 102L426 111Q456 119 466 131T474 176Q449 181 433 178T401 170Q378 164 356 160T308 155Q291 155 272 158L261 159L258 170Q258 172 256 174T251 179Q246 185 239 195T236 220Q229 231 228 243Q224 235 222
228T217 213L213 200L200 198Q198 196 197 192T196 186L200 175L190 166Q188 163 185 161T180 157Q178 146 175 136T167 116Q162 100 158 85T153 55L149 42Q144 34 137 30T122 23Q112 19 108 15L105 2L90 0Q77 -3 72 -4T59 -5L46 -4Q34 8 27 14T9 26L3 34Q-1 42
-2 48T-5 62Q-7 75 -11 80L-26 95ZM293 355Q279 335 266 313Q273 314 279 314T293 315Q328 317 358 320T423 330Q415 367 406 405T385 483L380 473Q355 446 332 415T294 356L293 355ZM600 962Q592 960 574 948T526 910Q511 897 490 878T445 840T394 807T344 792Q337
799 330 806T319 820T313 835T318 853Q305 874 307 885T317 904T336 919T351 940Q374 965 401 991T453 1045Q463 1047 472 1054T491 1071T509 1089T530 1105Q532 1099 541 1094T556 1091Q557 1080 567 1070T585 1055Q591 1041 597 1030T606 1007T609 985T600 962Z"
/>
<glyph unicode="&#xc2;" glyph-name="Acircumflex" horiz-adv-x="719" d="M-26 95L-13 105L-12 126Q13 187 39 243T95 358Q104 377 113 396T132 435Q131 439 131 443T133 454Q147 474 155 490T172 523Q181 543 191 563T218 602L225 612L236 611Q240 613 244 614T256
616L274 613Q307 628 332 656T384 725L396 742L412 732Q417 729 428 726T451 719Q472 714 492 708T523 690L528 681Q530 670 531 661T535 643Q539 622 542 602T546 556Q551 536 555 516T564 475Q569 446 575 420T591 369Q601 369 603 368Q615 373 631 374L644 375L648
363Q650 360 653 357T660 351Q676 350 683 345T696 334Q698 332 701 330T706 326L724 319L714 300Q703 279 681 259T630 226Q632 219 632 213T635 199Q639 179 641 158T641 113Q631 87 618 67T586 30T544 3T496 -9Q482 -6 476 -2T464 6Q456 12 451 14L438 20L442
35Q445 43 442 49T427 65Q423 68 420 71T413 79L393 102L426 111Q456 119 466 131T474 176Q449 181 433 178T401 170Q378 164 356 160T308 155Q291 155 272 158L261 159L258 170Q258 172 256 174T251 179Q246 185 239 195T236 220Q229 231 228 243Q224 235 222
228T217 213L213 200L200 198Q198 196 197 192T196 186L200 175L190 166Q188 163 185 161T180 157Q178 146 175 136T167 116Q162 100 158 85T153 55L149 42Q144 34 137 30T122 23Q112 19 108 15L105 2L90 0Q77 -3 72 -4T59 -5L46 -4Q34 8 27 14T9 26L3 34Q-1 42
-2 48T-5 62Q-7 75 -11 80L-26 95ZM293 355Q279 335 266 313Q273 314 279 314T293 315Q328 317 358 320T423 330Q415 367 406 405T385 483L380 473Q355 446 332 415T294 356L293 355ZM283 780Q282 790 274 799T260 812Q255 824 250 834T242 853T240 872T247 892Q255
894 269 905T307 938Q318 948 333 963T366 994T403 1021T440 1038Q450 1040 454 1040Q474 1033 493 1021T530 994T563 964T589 938Q612 916 626 905T649 892Q655 881 656 872T654 854T646 834T636 812Q630 808 622 799T613 780Q609 783 602 778T592 768Q583 773
576 781T561 798T546 812T530 820Q510 843 489 866T448 911Q429 890 408 867T366 820Q358 818 351 812T336 798T321 782T304 768Q302 773 295 778T283 780Z" />
<glyph unicode="&#xc3;" glyph-name="Atilde" horiz-adv-x="719" d="M-26 95L-13 105L-12 126Q13 187 39 243T95 358Q104 377 113 396T132 435Q131 439 131 443T133 454Q147 474 155 490T172 523Q181 543 191 563T218 602L225 612L236 611Q240 613 244 614T256
616L274 613Q307 628 332 656T384 725L396 742L412 732Q417 729 428 726T451 719Q472 714 492 708T523 690L528 681Q530 670 531 661T535 643Q539 622 542 602T546 556Q551 536 555 516T564 475Q569 446 575 420T591 369Q601 369 603 368Q615 373 631 374L644 375L648
363Q650 360 653 357T660 351Q676 350 683 345T696 334Q698 332 701 330T706 326L724 319L714 300Q703 279 681 259T630 226Q632 219 632 213T635 199Q639 179 641 158T641 113Q631 87 618 67T586 30T544 3T496 -9Q482 -6 476 -2T464 6Q456 12 451 14L438 20L442
35Q445 43 442 49T427 65Q423 68 420 71T413 79L393 102L426 111Q456 119 466 131T474 176Q449 181 433 178T401 170Q378 164 356 160T308 155Q291 155 272 158L261 159L258 170Q258 172 256 174T251 179Q246 185 239 195T236 220Q229 231 228 243Q224 235 222
228T217 213L213 200L200 198Q198 196 197 192T196 186L200 175L190 166Q188 163 185 161T180 157Q178 146 175 136T167 116Q162 100 158 85T153 55L149 42Q144 34 137 30T122 23Q112 19 108 15L105 2L90 0Q77 -3 72 -4T59 -5L46 -4Q34 8 27 14T9 26L3 34Q-1 42
-2 48T-5 62Q-7 75 -11 80L-26 95ZM293 355Q279 335 266 313Q273 314 279 314T293 315Q328 317 358 320T423 330Q415 367 406 405T385 483L380 473Q355 446 332 415T294 356L293 355ZM711 988Q728 987 737 979T747 957Q745 945 740 937Q733 921 728 913T716 895Q707
881 699 868T679 841Q672 835 668 833Q659 825 649 819T628 807Q610 800 595 799T561 797H547Q536 798 525 799T505 802Q490 810 482 816T465 828Q456 834 450 841T439 855Q435 861 430 866T419 872Q414 871 410 866T400 856Q398 854 396 852T392 847Q386 828 368
816Q359 811 354 810T345 807L335 805L325 803L315 804Q300 799 290 799Q270 800 261 808T251 830Q253 842 258 850Q266 866 271 875T283 893Q291 906 299 919T319 946Q326 952 330 954Q339 962 349 968T370 980Q388 987 403 988T437 990H451Q474 988 493 985Q508
977 516 971T533 959Q542 953 548 946T559 932Q571 915 580 916Q585 916 589 920T598 931Q600 934 606 940Q612 959 630 971Q644 978 653 980L663 982L673 984H683Q695 988 708 988H711Z" />
<glyph unicode="&#xc4;" glyph-name="Adieresis" horiz-adv-x="719" d="M-26 95L-13 105L-12 126Q13 187 39 243T95 358Q104 377 113 396T132 435Q131 439 131 443T133 454Q147 474 155 490T172 523Q181 543 191 563T218 602L225 612L236 611Q240 613 244 614T256
616L274 613Q307 628 332 656T384 725L396 742L412 732Q417 729 428 726T451 719Q472 714 492 708T523 690L528 681Q530 670 531 661T535 643Q539 622 542 602T546 556Q551 536 555 516T564 475Q569 446 575 420T591 369Q601 369 603 368Q615 373 631 374L644 375L648
363Q650 360 653 357T660 351Q676 350 683 345T696 334Q698 332 701 330T706 326L724 319L714 300Q703 279 681 259T630 226Q632 219 632 213T635 199Q639 179 641 158T641 113Q631 87 618 67T586 30T544 3T496 -9Q482 -6 476 -2T464 6Q456 12 451 14L438 20L442
35Q445 43 442 49T427 65Q423 68 420 71T413 79L393 102L426 111Q456 119 466 131T474 176Q449 181 433 178T401 170Q378 164 356 160T308 155Q291 155 272 158L261 159L258 170Q258 172 256 174T251 179Q246 185 239 195T236 220Q229 231 228 243Q224 235 222
228T217 213L213 200L200 198Q198 196 197 192T196 186L200 175L190 166Q188 163 185 161T180 157Q178 146 175 136T167 116Q162 100 158 85T153 55L149 42Q144 34 137 30T122 23Q112 19 108 15L105 2L90 0Q77 -3 72 -4T59 -5L46 -4Q34 8 27 14T9 26L3 34Q-1 42
-2 48T-5 62Q-7 75 -11 80L-26 95ZM293 355Q279 335 266 313Q273 314 279 314T293 315Q328 317 358 320T423 330Q415 367 406 405T385 483L380 473Q355 446 332 415T294 356L293 355ZM679 899L680 888Q673 876 669 868T662 851Q651 840 645 838T634 833Q623 829
619 825L609 810L599 819L584 805Q573 814 568 818T559 826T547 832T523 843L509 848L513 861Q515 866 515 879T515 901Q516 917 515 931T520 956Q541 967 553 971Q563 970 572 969T590 967Q597 966 599 966T601 965T604 965T612 968L624 966Q631 963 635 958T645
947Q649 939 653 937L665 936L669 924Q674 914 675 910T679 899ZM380 938Q391 926 402 916T415 894Q411 878 409 872T403 859Q390 848 373 836Q367 831 365 830T363 829T362 827T358 819L348 812Q340 809 333 809T319 811Q316 811 312 811T305 812L297 804L285
809Q274 814 270 815T260 821L251 827Q247 842 245 850T238 867Q238 884 240 890T244 901Q250 912 249 917L245 935L260 936V957Q274 958 281 958T294 959T307 964T332 974L346 980L352 967Q354 963 363 954T380 938Z" />
<glyph unicode="&#xc5;" glyph-name="Aring" horiz-adv-x="719" d="M293 355Q279 335 266 313L293 315Q328 317 358 320T423 330Q415 367 406 405T385 483L380 473Q355 446 332 415T294 356L293 355ZM572 701Q567 695 561 694T547 691Q543 689 538 687T528 682Q530
670 531 661T535 643Q539 622 542 602T546 556Q551 536 555 516T564 475Q569 446 575 420T591 369Q601 369 603 368Q615 373 631 374L644 375L648 363Q650 360 653 357T660 351Q676 350 683 345T696 334Q698 332 701 330T706 326L724 319L714 300Q703 279 681 259T630
226Q632 219 632 213T635 199Q639 179 641 158T641 113Q631 87 618 67T586 30T544 3T496 -9Q482 -6 476 -2T464 6Q456 12 451 14L438 20L442 35Q445 43 442 49T427 65Q423 68 420 71T413 79L393 102L426 111Q456 119 466 131T474 176Q449 181 433 178T401 170Q378
164 356 160T308 155Q291 155 272 158L261 159L258 170Q258 172 256 174T251 179Q246 185 239 195T236 220Q229 231 228 243Q224 235 222 228T217 213L213 200L200 198Q198 196 197 192T196 186L200 175L190 166Q188 163 185 161T180 157Q178 146 175 136T167 116Q162
100 158 85T153 55L149 42Q144 34 137 30T122 23Q112 19 108 15L105 2L90 0Q77 -3 72 -4T59 -5L46 -4Q34 8 27 14T9 26L3 34Q-1 42 -2 48T-5 62Q-7 75 -11 80L-26 95L-13 105L-12 126Q13 187 39 243T95 358Q104 377 113 396T132 435Q131 439 131 443T133 454Q147
474 155 490T172 523Q181 543 191 563T218 602L225 612L236 611Q240 613 244 614T256 616L274 613Q321 639 358 688Q339 705 330 730Q326 758 332 781T349 825T374 862T403 895Q409 893 411 898T419 906Q422 914 429 917T440 928Q448 930 453 936T466 944Q475 953
479 958T490 971Q495 972 497 972T505 973Q510 980 513 983T522 991Q529 988 536 987T549 980Q549 975 551 972T557 967T563 962T567 955Q574 949 576 947T580 938Q578 933 577 928T570 920Q575 908 574 907Q585 887 595 866T617 824Q615 812 621 802T629 780Q631
762 627 751T614 732T595 716T574 699L572 701ZM508 796Q510 806 510 809Q506 815 503 822T496 835Q491 830 489 830T484 833Q479 828 474 824T463 814Q457 806 452 801T447 786Q454 781 464 782T482 784Q490 787 496 790T508 796Z" />
<glyph unicode="&#xc6;" glyph-name="AE" horiz-adv-x="1181" d="M-72 95L-57 105L-53 126Q-20 187 14 243T86 358Q98 377 110 396T135 435Q133 444 138 454Q155 474 165 490T187 523Q199 543 212 563T244 602L253 612L264 611Q268 613 272 614T284 616L302 613Q337
628 366 656T428 725L442 742L457 732Q462 729 472 726T494 719Q514 714 533 708T562 690Q566 670 566 661T567 643Q568 622 568 602T566 556Q570 518 572 475Q574 446 576 420T584 369Q590 369 597 369T607 368Q612 370 622 372Q632 392 641 411T659 454Q642 470
635 488T623 526T617 564T609 604Q621 622 638 633T676 652T721 664T771 675Q819 690 857 698T931 712T1006 722T1096 736Q1097 733 1100 733T1107 733Q1109 726 1117 726V736Q1119 736 1122 735T1128 733T1132 733T1134 740Q1146 719 1164 706T1206 682Q1208 673
1208 669T1206 662T1205 654T1207 641Q1190 614 1170 599T1126 576T1078 564T1026 556T973 543T920 519Q912 522 906 522T892 519T876 515T855 515Q848 508 837 505T815 499Q820 488 820 477T822 458Q864 454 915 458T1016 465Q1016 460 1014 458T1012 451Q1021
445 1029 436T1046 419T1063 405T1085 400Q1090 390 1091 379T1089 356Q1069 343 1050 330T1010 305T966 287T914 281Q909 281 905 281T897 285Q886 280 870 281T842 278Q828 283 810 283T778 288Q759 262 743 234T715 173Q756 167 783 168T834 172T883 178T946
180Q972 192 1004 196T1065 210Q1075 207 1081 199T1094 182T1108 167T1127 163Q1132 158 1133 151T1136 138T1140 129T1151 126Q1132 87 1109 66T1056 34T990 17T908 3Q897 1 890 3T874 6Q846 1 808 -4T730 -8T655 2T595 34Q588 40 586 48T576 64Q564 49 548 36T512
13T474 -3T435 -9Q421 -6 416 -2T405 6Q402 8 400 10T394 14L381 20L388 35Q392 43 389 49T377 65Q374 68 371 71T365 79L348 102L382 111Q413 119 424 131T439 176Q416 181 399 178T365 170Q342 164 320 160T271 155Q253 155 235 158L224 159L223 170Q222 172
221 174T217 179Q212 185 207 195T207 220Q205 225 204 231T203 243Q198 235 195 228T187 213L182 200L169 198Q167 196 165 192T163 186L165 175L154 166Q151 163 149 161T143 157Q138 146 134 136T124 116Q116 100 110 85T102 55L95 42Q89 34 81 30T65 23Q62
21 58 19T51 15L45 2L31 0Q17 -3 12 -4T-1 -5L-14 -4Q-25 8 -31 14T-47 26Q-56 47 -56 62Q-56 77 -59 80L-72 95ZM284 355Q276 345 268 335T251 313Q259 314 265 314T278 315Q314 317 344 320T410 330Q408 367 404 405T394 483L388 473Q359 446 332 415T285 356L284
355Z" />
<glyph unicode="&#xc7;" glyph-name="Ccedilla" horiz-adv-x="626" d="M402 -149Q417 -163 425 -181T428 -225Q419 -245 405 -259T369 -290Q351 -298 334 -302T304 -314Q298 -312 293 -312T284 -311Q267 -319 247 -322T203 -319Q186 -321 170 -321T140 -317T116
-307T103 -288Q85 -278 79 -261T84 -227Q92 -226 99 -220Q140 -221 183 -221T275 -209Q276 -204 280 -202T290 -197T300 -193T307 -187Q307 -184 305 -183T301 -180T296 -176T295 -170Q284 -171 271 -167T249 -156Q232 -155 225 -154T213 -150T200 -145T177 -137Q171
-131 165 -127T154 -120T146 -112T141 -98Q141 -88 141 -81T142 -67T144 -51T149 -32Q157 -24 171 -6T206 28Q191 33 177 37T148 46Q137 59 125 70T93 87Q64 109 46 142T17 212T3 288T0 364Q9 391 22 413T51 456T84 495T119 533Q125 533 130 530Q134 541 142 549T159
563T177 576T192 592Q217 598 236 609T274 633T311 657T355 674Q364 684 377 691T404 704T430 717T451 736Q457 728 468 730T488 736Q494 737 498 734T505 728T511 723T517 729Q525 728 522 722T517 714Q527 716 533 711T554 703Q559 698 557 695T554 685Q590 674
600 651T602 602T573 555T525 526Q494 518 468 510T417 492T371 469T333 437Q305 429 283 415T241 384T203 349T167 312Q167 295 161 286T148 268Q150 249 156 236T170 208Q250 184 339 179T517 172Q526 160 537 150T558 128T573 103T576 68Q559 51 539 36T499
5Q490 4 478 5T452 6T425 5T399 -2Q353 -1 305 7L266 -51Q269 -57 277 -58T288 -65Q310 -68 324 -76T351 -95T374 -117T400 -138Q400 -141 402 -142T402 -149Z" />
<glyph unicode="&#xc8;" glyph-name="Egrave" horiz-adv-x="642" d="M56 34Q48 42 45 53T28 71Q26 86 23 105T16 145T11 186T12 224Q14 233 18 241T27 256T34 272T35 288Q41 289 42 294T52 298Q59 320 67 339T84 376T102 412T120 454Q103 470 96 488T84 526T78
564T70 604Q82 622 99 633T136 652T181 664T232 675Q280 690 318 698T392 712T467 722T557 736Q558 733 560 733T567 733Q570 726 578 726Q578 729 578 731T577 736Q579 736 582 735T588 733T593 733T594 740Q606 719 625 706T667 682Q668 673 668 669T666 662T665
654T667 641Q651 614 631 599T587 576T539 564T487 556T433 543T380 519Q372 522 366 522T352 519T337 515T316 515Q308 508 298 505T276 499Q281 488 281 477T283 458Q325 454 376 458T476 465Q477 460 475 458T473 451Q482 445 490 436T506 419T524 405T545 400Q550
390 552 379T549 356Q529 343 510 330T471 305T426 287T374 281Q369 281 366 281T357 285Q347 280 331 281T303 278Q289 283 271 283T238 288Q220 262 204 234T176 173Q217 167 244 168T295 172T344 178T407 180Q432 192 464 196T525 210Q535 207 542 199T555 182T569
167T587 163Q592 158 593 151T596 138T601 129T612 126Q593 87 570 66T517 34T451 17T369 3Q358 1 351 3T335 6Q307 1 269 -4T191 -8T116 2T56 34ZM256 962Q248 974 248 985T250 1007T259 1029T271 1055Q279 1059 289 1069T300 1091Q305 1088 314 1093T326 1105Q337
1099 346 1090T365 1071T383 1055T403 1045Q427 1018 454 992T505 940Q509 926 519 919T538 904T549 885T538 853Q544 843 543 835T538 820T526 806T512 792Q488 793 462 807T412 839T366 877T330 910Q301 936 283 948T256 962Z" />
<glyph unicode="&#xc9;" glyph-name="Eacute" horiz-adv-x="642" d="M56 34Q48 42 45 53T28 71Q26 86 23 105T16 145T11 186T12 224Q14 233 18 241T27 256T34 272T35 288Q41 289 42 294T52 298Q59 320 67 339T84 376T102 412T120 454Q103 470 96 488T84 526T78
564T70 604Q82 622 99 633T136 652T181 664T232 675Q280 690 318 698T392 712T467 722T557 736Q558 733 560 733T567 733Q570 726 578 726Q578 729 578 731T577 736Q579 736 582 735T588 733T593 733T594 740Q606 719 625 706T667 682Q668 673 668 669T666 662T665
654T667 641Q651 614 631 599T587 576T539 564T487 556T433 543T380 519Q372 522 366 522T352 519T337 515T316 515Q308 508 298 505T276 499Q281 488 281 477T283 458Q325 454 376 458T476 465Q477 460 475 458T473 451Q482 445 490 436T506 419T524 405T545 400Q550
390 552 379T549 356Q529 343 510 330T471 305T426 287T374 281Q369 281 366 281T357 285Q347 280 331 281T303 278Q289 283 271 283T238 288Q220 262 204 234T176 173Q217 167 244 168T295 172T344 178T407 180Q432 192 464 196T525 210Q535 207 542 199T555 182T569
167T587 163Q592 158 593 151T596 138T601 129T612 126Q593 87 570 66T517 34T451 17T369 3Q358 1 351 3T335 6Q307 1 269 -4T191 -8T116 2T56 34ZM590 952Q582 950 564 938T516 900Q501 887 480 868T435 830T384 797T334 782Q327 789 320 796T309 810T303 825T308
843Q295 864 297 875T307 894T326 909T341 930Q364 955 391 981T443 1035Q453 1037 462 1044T481 1061T499 1079T520 1095Q522 1089 531 1084T546 1081Q547 1070 557 1060T575 1045Q581 1031 587 1020T596 997T599 975T590 952Z" />
<glyph unicode="&#xca;" glyph-name="Ecircumflex" horiz-adv-x="642" d="M56 34Q48 42 45 53T28 71Q26 86 23 105T16 145T11 186T12 224Q14 233 18 241T27 256T34 272T35 288Q41 289 42 294T52 298Q59 320 67 339T84 376T102 412T120 454Q103 470 96 488T84 526T78
564T70 604Q82 622 99 633T136 652T181 664T232 675Q280 690 318 698T392 712T467 722T557 736Q558 733 560 733T567 733Q570 726 578 726Q578 729 578 731T577 736Q579 736 582 735T588 733T593 733T594 740Q606 719 625 706T667 682Q668 673 668 669T666 662T665
654T667 641Q651 614 631 599T587 576T539 564T487 556T433 543T380 519Q372 522 366 522T352 519T337 515T316 515Q308 508 298 505T276 499Q281 488 281 477T283 458Q325 454 376 458T476 465Q477 460 475 458T473 451Q482 445 490 436T506 419T524 405T545 400Q550
390 552 379T549 356Q529 343 510 330T471 305T426 287T374 281Q369 281 366 281T357 285Q347 280 331 281T303 278Q289 283 271 283T238 288Q220 262 204 234T176 173Q217 167 244 168T295 172T344 178T407 180Q432 192 464 196T525 210Q535 207 542 199T555 182T569
167T587 163Q592 158 593 151T596 138T601 129T612 126Q593 87 570 66T517 34T451 17T369 3Q358 1 351 3T335 6Q307 1 269 -4T191 -8T116 2T56 34ZM253 800Q252 810 244 819T230 832Q225 844 220 854T212 873T210 892T217 912Q225 914 239 925T277 958Q288 968
303 983T336 1014T373 1041T410 1058Q420 1060 424 1060Q444 1053 463 1041T500 1014T533 984T559 958Q582 936 596 925T619 912Q625 901 626 892T624 874T616 854T606 832Q600 828 592 819T583 800Q579 803 572 798T562 788Q553 793 546 801T531 818T516 832T500
840Q480 863 459 886T418 931Q399 910 378 887T336 840Q328 838 321 832T306 818T291 802T274 788Q272 793 265 798T253 800Z" />
<glyph unicode="&#xcb;" glyph-name="Edieresis" horiz-adv-x="642" d="M56 34Q48 42 45 53T28 71Q26 86 23 105T16 145T11 186T12 224Q14 233 18 241T27 256T34 272T35 288Q41 289 42 294T52 298Q59 320 67 339T84 376T102 412T120 454Q103 470 96 488T84 526T78
564T70 604Q82 622 99 633T136 652T181 664T232 675Q280 690 318 698T392 712T467 722T557 736Q558 733 560 733T567 733Q570 726 578 726Q578 729 578 731T577 736Q579 736 582 735T588 733T593 733T594 740Q606 719 625 706T667 682Q668 673 668 669T666 662T665
654T667 641Q651 614 631 599T587 576T539 564T487 556T433 543T380 519Q372 522 366 522T352 519T337 515T316 515Q308 508 298 505T276 499Q281 488 281 477T283 458Q325 454 376 458T476 465Q477 460 475 458T473 451Q482 445 490 436T506 419T524 405T545 400Q550
390 552 379T549 356Q529 343 510 330T471 305T426 287T374 281Q369 281 366 281T357 285Q347 280 331 281T303 278Q289 283 271 283T238 288Q220 262 204 234T176 173Q217 167 244 168T295 172T344 178T407 180Q432 192 464 196T525 210Q535 207 542 199T555 182T569
167T587 163Q592 158 593 151T596 138T601 129T612 126Q593 87 570 66T517 34T451 17T369 3Q358 1 351 3T335 6Q307 1 269 -4T191 -8T116 2T56 34ZM650 889L651 878Q644 866 640 858T633 841Q622 830 616 828T605 823Q594 819 590 815L580 800L570 809L555 795Q544
804 539 808T530 816T518 822T494 833L480 838L484 851Q486 856 486 869T486 891Q487 907 486 921T491 946Q512 957 524 961Q534 960 543 959T561 957Q568 956 570 956T572 955T575 955T583 958L595 956Q602 953 606 948T616 937Q620 929 624 927L636 926L640 914Q645
904 646 900T650 889ZM351 928Q362 916 373 906T386 884Q382 868 380 862T374 849Q361 838 344 826Q338 821 336 820T334 819T333 817T329 809L319 802Q311 799 304 799T290 801Q287 801 283 801T276 802L268 794L256 799Q245 804 241 805T231 811L222 817Q218
832 216 840T209 857Q209 874 211 880T215 891Q221 902 220 907L216 925L231 926V947Q245 948 252 948T265 949T278 954T303 964L317 970L323 957Q325 953 334 944T351 928Z" />
<glyph unicode="&#xcc;" glyph-name="Igrave" horiz-adv-x="528" d="M17 -12Q3 -3 -5 11T-19 41T-28 74T-36 108Q-36 122 -30 128T-17 141Q7 142 26 145T63 151T99 156T138 159Q153 190 166 218T191 273Q197 298 206 319T225 360T241 399T250 441Q262 476 271
505T286 576Q248 570 225 565T192 554Q172 555 161 562T142 579T130 602T118 629Q122 638 120 655T108 681Q116 683 120 694T121 712Q138 717 157 718T194 721T230 725T259 736Q311 738 367 740T472 745Q490 739 513 739T560 736T602 723T628 688Q643 686 650 680T660
666T662 647T661 626Q645 614 621 607T567 595T507 589T445 586Q440 553 428 509T402 422T380 346T371 302Q361 279 355 263T343 233T332 206T318 175H386Q388 164 395 160T410 153T424 146T431 131Q450 126 455 116T458 95T448 71T433 50Q424 52 416 46T401 31Q372
35 344 32T292 27Q287 26 288 22T286 15Q255 25 223 23T157 14T88 -2T17 -12ZM225 993Q217 1005 217 1016T219 1038T228 1060T240 1086Q248 1090 258 1100T269 1122Q274 1119 283 1124T295 1136Q306 1130 315 1121T334 1102T352 1086T372 1076Q396 1049 423 1023T474
971Q478 957 488 950T507 935T518 916T507 884Q513 874 512 866T507 851T495 837T481 823Q457 824 431 838T381 870T335 908T299 941Q270 967 252 979T225 993Z" />
<glyph unicode="&#xcd;" glyph-name="Iacute" horiz-adv-x="528" d="M17 -12Q3 -3 -5 11T-19 41T-28 74T-36 108Q-36 122 -30 128T-17 141Q7 142 26 145T63 151T99 156T138 159Q153 190 166 218T191 273Q197 298 206 319T225 360T241 399T250 441Q262 476 271
505T286 576Q248 570 225 565T192 554Q172 555 161 562T142 579T130 602T118 629Q122 638 120 655T108 681Q116 683 120 694T121 712Q138 717 157 718T194 721T230 725T259 736Q311 738 367 740T472 745Q490 739 513 739T560 736T602 723T628 688Q643 686 650 680T660
666T662 647T661 626Q645 614 621 607T567 595T507 589T445 586Q440 553 428 509T402 422T380 346T371 302Q361 279 355 263T343 233T332 206T318 175H386Q388 164 395 160T410 153T424 146T431 131Q450 126 455 116T458 95T448 71T433 50Q424 52 416 46T401 31Q372
35 344 32T292 27Q287 26 288 22T286 15Q255 25 223 23T157 14T88 -2T17 -12ZM641 993Q633 991 615 979T567 941Q552 928 531 909T486 871T435 838T385 823Q378 830 371 837T360 851T354 866T359 884Q346 905 348 916T358 935T377 950T392 971Q415 996 442 1022T494
1076Q504 1078 513 1085T532 1102T550 1120T571 1136Q573 1130 582 1125T597 1122Q598 1111 608 1101T626 1086Q632 1072 638 1061T647 1038T650 1016T641 993Z" />
<glyph unicode="&#xce;" glyph-name="Icircumflex" horiz-adv-x="528" d="M17 -12Q3 -3 -5 11T-19 41T-28 74T-36 108Q-36 122 -30 128T-17 141Q7 142 26 145T63 151T99 156T138 159Q153 190 166 218T191 273Q197 298 206 319T225 360T241 399T250 441Q262 476
271 505T286 576Q248 570 225 565T192 554Q172 555 161 562T142 579T130 602T118 629Q122 638 120 655T108 681Q116 683 120 694T121 712Q138 717 157 718T194 721T230 725T259 736Q311 738 367 740T472 745Q490 739 513 739T560 736T602 723T628 688Q643 686 650
680T660 666T662 647T661 626Q645 614 621 607T567 595T507 589T445 586Q440 553 428 509T402 422T380 346T371 302Q361 279 355 263T343 233T332 206T318 175H386Q388 164 395 160T410 153T424 146T431 131Q450 126 455 116T458 95T448 71T433 50Q424 52 416 46T401
31Q372 35 344 32T292 27Q287 26 288 22T286 15Q255 25 223 23T157 14T88 -2T17 -12ZM264 831Q263 841 255 850T241 863Q236 875 231 885T223 904T221 923T228 943Q236 945 250 956T288 989Q299 999 314 1014T347 1045T384 1072T421 1089Q431 1091 435 1091Q455
1084 474 1072T511 1045T544 1015T570 989Q593 967 607 956T630 943Q636 932 637 923T635 905T627 885T617 863Q611 859 603 850T594 831Q590 834 583 829T573 819Q564 824 557 832T542 849T527 863T511 871Q491 894 470 917T429 962Q410 941 389 918T347 871Q339
869 332 863T317 849T302 833T285 819Q283 824 276 829T264 831Z" />
<glyph unicode="&#xcf;" glyph-name="Idieresis" horiz-adv-x="528" d="M17 -12Q3 -3 -5 11T-19 41T-28 74T-36 108Q-36 122 -30 128T-17 141Q7 142 26 145T63 151T99 156T138 159Q153 190 166 218T191 273Q197 298 206 319T225 360T241 399T250 441Q262 476 271
505T286 576Q248 570 225 565T192 554Q172 555 161 562T142 579T130 602T118 629Q122 638 120 655T108 681Q116 683 120 694T121 712Q138 717 157 718T194 721T230 725T259 736Q311 738 367 740T472 745Q490 739 513 739T560 736T602 723T628 688Q643 686 650 680T660
666T662 647T661 626Q645 614 621 607T567 595T507 589T445 586Q440 553 428 509T402 422T380 346T371 302Q361 279 355 263T343 233T332 206T318 175H386Q388 164 395 160T410 153T424 146T431 131Q450 126 455 116T458 95T448 71T433 50Q424 52 416 46T401 31Q372
35 344 32T292 27Q287 26 288 22T286 15Q255 25 223 23T157 14T88 -2T17 -12ZM669 920L670 909Q663 897 659 889T652 872Q641 861 635 859T624 854Q613 850 609 846L599 831L589 840L574 826Q563 835 558 839T549 847T537 853T513 864L499 869L503 882Q505 887
505 900T505 922Q506 938 505 952T510 977Q531 988 543 992Q553 991 562 990T580 988Q587 987 589 987T591 986T594 986T602 989L614 987Q621 984 625 979T635 968Q639 960 643 958L655 957L659 945Q664 935 665 931T669 920ZM370 959Q381 947 392 937T405 915Q401
899 399 893T393 880Q380 869 363 857Q357 852 355 851T353 850T352 848T348 840L338 833Q330 830 323 830T309 832Q306 832 302 832T295 833L287 825L275 830Q264 835 260 836T250 842L241 848Q237 863 235 871T228 888Q228 905 230 911T234 922Q240 933 239 938L235
956L250 957V978Q264 979 271 979T284 980T297 985T322 995L336 1001L342 988Q344 984 353 975T370 959Z" />
<glyph unicode="&#xd0;" glyph-name="Eth" horiz-adv-x="672" d="M-9 345Q-8 349 -7 356T-7 372T-10 387T-15 399Q-10 401 -7 413T-6 431Q6 436 20 438T47 441T72 446T93 457Q106 458 118 459T145 461Q141 516 125 568Q127 579 129 584T129 594Q127 603 135 603T151
603Q151 621 145 638T132 679Q140 697 143 714T154 745Q218 725 277 697T394 654Q437 623 482 593T565 526T628 442T657 331Q655 325 654 321T652 313T651 304T651 290Q615 227 560 184T440 108T305 48T167 -11Q138 -4 123 12T100 51T90 101T84 157Q88 170 94 179T100
204Q108 227 115 250T127 296Q92 288 72 281T43 268Q29 269 21 276T8 293T0 317T-9 345ZM265 556Q256 556 252 552Q264 505 270 464Q282 463 295 462T320 457T341 442T354 412Q365 410 370 404T376 390T378 370T377 349Q360 330 333 321T273 308Q269 266 258 214Q271
215 281 219T301 228T323 237T350 242Q354 250 360 254T372 264Q397 274 421 285T467 310T506 342T534 385Q526 400 515 410T491 431T467 453T448 480Q432 482 420 488T397 501T374 514T344 521Q318 535 297 540T265 556Z" />
<glyph unicode="&#xd1;" glyph-name="Ntilde" horiz-adv-x="701" d="M181 94Q171 86 169 74T164 49T154 29T127 21Q123 16 125 15T130 6Q116 8 110 4T95 -2Q72 5 57 23T30 64T10 109T-8 149Q-8 153 -5 153T2 152Q-3 162 -5 174T-15 195Q14 257 47 324T113 461T180
601T245 740Q273 730 299 717T348 685T385 644T406 590Q404 584 401 586T396 584Q401 578 401 576T401 571T400 564T405 553Q400 554 398 552T391 551Q396 537 394 529T388 515T382 501T383 480Q379 480 378 479T375 475T373 472T367 471Q370 445 369 419T367 365T367
308T375 248Q418 273 444 313T486 402T510 507T528 621Q539 632 545 648T556 681T565 715T578 747Q596 745 608 737T632 718T655 698T685 686Q699 666 711 648T727 606Q721 596 718 584T712 560T702 538T685 521Q682 491 676 465T665 414T656 362T653 303Q644 274
633 244T617 187Q598 172 587 150T564 106Q559 102 558 104T549 108Q550 99 546 97T546 82Q529 74 516 61T488 37T452 23T398 31Q349 67 310 114T248 225Q238 222 233 212T224 191T216 171T204 162Q202 153 197 146T186 131T179 114T181 94ZM732 1009Q749 1008
758 1000T768 978Q766 966 761 958Q754 942 749 934T737 916Q728 902 720 889T700 862Q693 856 689 854Q680 846 670 840T649 828Q631 821 616 820T582 818H568Q557 819 546 820T526 823Q511 831 503 837T486 849Q477 855 471 862T460 876Q456 882 451 887T440
893Q435 892 431 887T421 877Q419 875 417 873T413 868Q407 849 389 837Q380 832 375 831T366 828L356 826L346 824L336 825Q321 820 311 820Q291 821 282 829T272 851Q274 863 279 871Q287 887 292 896T304 914Q312 927 320 940T340 967Q347 973 351 975Q360 983
370 989T391 1001Q409 1008 424 1009T458 1011H472Q495 1009 514 1006Q529 998 537 992T554 980Q563 974 569 967T580 953Q592 936 601 937Q606 937 610 941T619 952Q621 955 627 961Q633 980 651 992Q665 999 674 1001L684 1003L694 1005H704Q716 1009 729 1009H732Z"
/>
<glyph unicode="&#xd2;" glyph-name="Ograve" horiz-adv-x="762" d="M241 -4Q197 -10 161 0T97 31T48 81T14 143Q5 211 19 266T60 369T121 457T188 536Q195 533 199 536T207 544T215 554T226 561Q230 570 236 576T250 587T264 599T276 614Q286 616 293 621T307
632T321 643T338 651V664Q360 674 370 686T394 717Q405 718 411 718T432 720Q441 737 449 745T472 763Q487 755 504 754T535 738Q536 726 542 720T555 708T569 696T578 679Q583 679 584 681T591 682Q593 674 595 669T599 660T604 651T609 639Q604 627 600 614T584
595Q584 587 590 587T597 579Q598 570 594 564Q622 517 645 466T697 367Q695 353 698 340T707 313T718 287T725 261Q727 244 725 225T717 187T701 154T678 130Q662 110 638 98T594 68Q580 60 564 57T531 49Q518 41 500 34T463 20T425 11T391 9Q355 -4 321 -9T241
-4ZM254 360Q244 337 231 319T204 281T182 241T171 190Q191 173 218 170T275 168T333 176T385 181Q385 190 393 190Q435 194 471 213T546 253Q551 265 559 274T568 300Q563 309 562 315T560 333Q534 369 515 411T471 492Q469 487 463 482T450 484Q447 474 441 471T428
467T413 470T399 478Q364 450 330 424T267 363Q262 360 261 361T254 360ZM388 941Q380 953 380 964T382 986T391 1008T403 1034Q411 1038 421 1048T432 1070Q437 1067 446 1072T458 1084Q469 1078 478 1069T497 1050T515 1034T535 1024Q559 997 586 971T637 919Q641
905 651 898T670 883T681 864T670 832Q676 822 675 814T670 799T658 785T644 771Q620 772 594 786T544 818T498 856T462 889Q433 915 415 927T388 941Z" />
<glyph unicode="&#xd3;" glyph-name="Oacute" horiz-adv-x="762" d="M241 -4Q197 -10 161 0T97 31T48 81T14 143Q5 211 19 266T60 369T121 457T188 536Q195 533 199 536T207 544T215 554T226 561Q230 570 236 576T250 587T264 599T276 614Q286 616 293 621T307
632T321 643T338 651V664Q360 674 370 686T394 717Q405 718 411 718T432 720Q441 737 449 745T472 763Q487 755 504 754T535 738Q536 726 542 720T555 708T569 696T578 679Q583 679 584 681T591 682Q593 674 595 669T599 660T604 651T609 639Q604 627 600 614T584
595Q584 587 590 587T597 579Q598 570 594 564Q622 517 645 466T697 367Q695 353 698 340T707 313T718 287T725 261Q727 244 725 225T717 187T701 154T678 130Q662 110 638 98T594 68Q580 60 564 57T531 49Q518 41 500 34T463 20T425 11T391 9Q355 -4 321 -9T241
-4ZM254 360Q244 337 231 319T204 281T182 241T171 190Q191 173 218 170T275 168T333 176T385 181Q385 190 393 190Q435 194 471 213T546 253Q551 265 559 274T568 300Q563 309 562 315T560 333Q534 369 515 411T471 492Q469 487 463 482T450 484Q447 474 441 471T428
467T413 470T399 478Q364 450 330 424T267 363Q262 360 261 361T254 360ZM600 952Q592 950 574 938T526 900Q511 887 490 868T445 830T394 797T344 782Q337 789 330 796T319 810T313 825T318 843Q305 864 307 875T317 894T336 909T351 930Q374 955 401 981T453
1035Q463 1037 472 1044T491 1061T509 1079T530 1095Q532 1089 541 1084T556 1081Q557 1070 567 1060T585 1045Q591 1031 597 1020T606 997T609 975T600 952Z" />
<glyph unicode="&#xd4;" glyph-name="Ocircumflex" horiz-adv-x="762" d="M241 -4Q197 -10 161 0T97 31T48 81T14 143Q5 211 19 266T60 369T121 457T188 536Q195 533 199 536T207 544T215 554T226 561Q230 570 236 576T250 587T264 599T276 614Q286 616 293 621T307
632T321 643T338 651V664Q360 674 370 686T394 717Q405 718 411 718T432 720Q441 737 449 745T472 763Q487 755 504 754T535 738Q536 726 542 720T555 708T569 696T578 679Q583 679 584 681T591 682Q593 674 595 669T599 660T604 651T609 639Q604 627 600 614T584
595Q584 587 590 587T597 579Q598 570 594 564Q622 517 645 466T697 367Q695 353 698 340T707 313T718 287T725 261Q727 244 725 225T717 187T701 154T678 130Q662 110 638 98T594 68Q580 60 564 57T531 49Q518 41 500 34T463 20T425 11T391 9Q355 -4 321 -9T241
-4ZM254 360Q244 337 231 319T204 281T182 241T171 190Q191 173 218 170T275 168T333 176T385 181Q385 190 393 190Q435 194 471 213T546 253Q551 265 559 274T568 300Q563 309 562 315T560 333Q534 369 515 411T471 492Q469 487 463 482T450 484Q447 474 441 471T428
467T413 470T399 478Q364 450 330 424T267 363Q262 360 261 361T254 360ZM334 790Q333 800 325 809T311 822Q306 834 301 844T293 863T291 882T298 902Q306 904 320 915T358 948Q369 958 384 973T417 1004T454 1031T491 1048Q501 1050 505 1050Q525 1043 544 1031T581
1004T614 974T640 948Q663 926 677 915T700 902Q706 891 707 882T705 864T697 844T687 822Q681 818 673 809T664 790Q660 793 653 788T643 778Q634 783 627 791T612 808T597 822T581 830Q561 853 540 876T499 921Q480 900 459 877T417 830Q409 828 402 822T387
808T372 792T355 778Q353 783 346 788T334 790Z" />
<glyph unicode="&#xd5;" glyph-name="Otilde" horiz-adv-x="762" d="M241 -4Q197 -10 161 0T97 31T48 81T14 143Q5 211 19 266T60 369T121 457T188 536Q195 533 199 536T207 544T215 554T226 561Q230 570 236 576T250 587T264 599T276 614Q286 616 293 621T307
632T321 643T338 651V664Q360 674 370 686T394 717Q405 718 411 718T432 720Q441 737 449 745T472 763Q487 755 504 754T535 738Q536 726 542 720T555 708T569 696T578 679Q583 679 584 681T591 682Q593 674 595 669T599 660T604 651T609 639Q604 627 600 614T584
595Q584 587 590 587T597 579Q598 570 594 564Q622 517 645 466T697 367Q695 353 698 340T707 313T718 287T725 261Q727 244 725 225T717 187T701 154T678 130Q662 110 638 98T594 68Q580 60 564 57T531 49Q518 41 500 34T463 20T425 11T391 9Q355 -4 321 -9T241
-4ZM254 360Q244 337 231 319T204 281T182 241T171 190Q191 173 218 170T275 168T333 176T385 181Q385 190 393 190Q435 194 471 213T546 253Q551 265 559 274T568 300Q563 309 562 315T560 333Q534 369 515 411T471 492Q469 487 463 482T450 484Q447 474 441 471T428
467T413 470T399 478Q364 450 330 424T267 363Q262 360 261 361T254 360ZM732 999Q749 998 758 990T768 968Q766 956 761 948Q754 932 749 924T737 906Q728 892 720 879T700 852Q693 846 689 844Q680 836 670 830T649 818Q631 811 616 810T582 808H568Q557 809
546 810T526 813Q511 821 503 827T486 839Q477 845 471 852T460 866Q456 872 451 877T440 883Q435 882 431 877T421 867Q419 865 417 863T413 858Q407 839 389 827Q380 822 375 821T366 818L356 816L346 814L336 815Q321 810 311 810Q291 811 282 819T272 841Q274
853 279 861Q287 877 292 886T304 904Q312 917 320 930T340 957Q347 963 351 965Q360 973 370 979T391 991Q409 998 424 999T458 1001H472Q495 999 514 996Q529 988 537 982T554 970Q563 964 569 957T580 943Q592 926 601 927Q606 927 610 931T619 942Q621 945
627 951Q633 970 651 982Q665 989 674 991L684 993L694 995H704Q716 999 729 999H732Z" />
<glyph unicode="&#xd6;" glyph-name="Odieresis" horiz-adv-x="762" d="M241 -4Q197 -10 161 0T97 31T48 81T14 143Q5 211 19 266T60 369T121 457T188 536Q195 533 199 536T207 544T215 554T226 561Q230 570 236 576T250 587T264 599T276 614Q286 616 293 621T307
632T321 643T338 651V664Q360 674 370 686T394 717Q405 718 411 718T432 720Q441 737 449 745T472 763Q487 755 504 754T535 738Q536 726 542 720T555 708T569 696T578 679Q583 679 584 681T591 682Q593 674 595 669T599 660T604 651T609 639Q604 627 600 614T584
595Q584 587 590 587T597 579Q598 570 594 564Q622 517 645 466T697 367Q695 353 698 340T707 313T718 287T725 261Q727 244 725 225T717 187T701 154T678 130Q662 110 638 98T594 68Q580 60 564 57T531 49Q518 41 500 34T463 20T425 11T391 9Q355 -4 321 -9T241
-4ZM254 360Q244 337 231 319T204 281T182 241T171 190Q191 173 218 170T275 168T333 176T385 181Q385 190 393 190Q435 194 471 213T546 253Q551 265 559 274T568 300Q563 309 562 315T560 333Q534 369 515 411T471 492Q469 487 463 482T450 484Q447 474 441 471T428
467T413 470T399 478Q364 450 330 424T267 363Q262 360 261 361T254 360ZM720 899L721 888Q714 876 710 868T703 851Q692 840 686 838T675 833Q664 829 660 825L650 810L640 819L625 805Q614 814 609 818T600 826T588 832T564 843L550 848L554 861Q556 866 556
879T556 901Q557 917 556 931T561 956Q582 967 594 971Q604 970 613 969T631 967Q638 966 640 966T642 965T645 965T653 968L665 966Q672 963 676 958T686 947Q690 939 694 937L706 936L710 924Q715 914 716 910T720 899ZM421 938Q432 926 443 916T456 894Q452
878 450 872T444 859Q431 848 414 836Q408 831 406 830T404 829T403 827T399 819L389 812Q381 809 374 809T360 811Q357 811 353 811T346 812L338 804L326 809Q315 814 311 815T301 821L292 827Q288 842 286 850T279 867Q279 884 281 890T285 901Q291 912 290 917L286
935L301 936V957Q315 958 322 958T335 959T348 964T373 974L387 980L393 967Q395 963 404 954T421 938Z" />
<glyph unicode="&#xd7;" glyph-name="multiply" horiz-adv-x="502" d="M445 525Q459 519 467 509T480 489T489 467T502 448Q495 434 487 424T476 401Q459 394 434 379Q413 366 381 343T305 282Q316 270 322 260T333 242Q337 233 341 225Q348 219 353 212T362 196T373
181T388 170Q393 145 402 125T411 84Q405 65 394 53T377 27Q369 25 362 23T350 15L303 49Q290 91 267 129T221 195Q187 169 157 138T101 71Q98 36 88 23T47 -2Q19 19 7 48T4 107Q5 128 14 148T37 186T67 221T97 251Q100 259 107 265T122 277T138 290T151 306Q145
326 128 345T97 386Q96 389 92 388T85 388Q87 399 81 412T65 434Q67 442 70 455T69 485Q69 492 71 498T76 509T80 520T80 531Q90 532 98 530T114 524T128 519T142 520Q140 512 144 512T149 506Q162 502 178 488T209 457T235 424T253 399Q273 411 296 429T344 465T395
499T445 525Z" />
<glyph unicode="&#xd8;" glyph-name="Oslash" horiz-adv-x="762" d="M103 26Q72 47 50 77T14 143Q5 211 19 266T60 369T121 457T188 536Q195 533 199 536T207 544T215 554T226 561Q230 570 236 576T250 587T264 599T276 614Q286 616 293 621T307 632T321 643T338
651V664Q360 674 370 686T394 717Q405 718 411 718T432 720Q441 737 449 745T472 763Q487 755 504 754T535 738Q536 726 542 720T555 708T569 696T578 679Q583 679 584 681T591 682Q617 712 644 734T700 753Q719 709 720 667T711 571Q700 558 680 536T636 485Q650
455 665 425T697 367Q695 353 698 340T707 313T718 287T725 261Q727 244 725 225T717 187T701 154T678 130Q662 110 638 98T594 68Q580 60 564 57T531 49Q518 41 500 34T463 20T425 11T391 9Q359 -2 329 -7T261 -7Q259 -22 263 -36T266 -66Q258 -74 253 -83T241
-101T228 -118T208 -133Q184 -131 168 -127T131 -118Q116 -105 108 -88T98 -52T97 -12T103 26ZM560 333Q553 341 548 350T536 370Q513 343 496 321T473 285Q458 269 436 244T389 189Q435 194 471 213T546 253Q551 265 559 274T568 300Q563 309 562 315T560 333ZM254
360Q244 337 231 319T204 281T182 241T171 190Q175 187 178 185T186 180Q203 199 223 220T262 262T297 301T323 331Q327 343 338 358T364 392T396 429T430 467Q422 466 414 469T399 478Q364 450 330 424T267 363Q262 360 261 361T254 360Z" />
<glyph unicode="&#xd9;" glyph-name="Ugrave" horiz-adv-x="712" d="M72 495Q70 508 67 511Q74 529 77 546T83 580Q85 594 87 606T94 629Q111 633 119 643T133 662Q151 663 156 657T169 637Q174 626 183 614T210 594Q213 583 217 573T226 552Q235 531 243 509T252
466Q240 443 234 413T226 353T227 294T237 247L243 231L265 233Q301 242 330 253T384 281T432 317T480 366Q504 394 523 429T554 503T574 579T583 650Q602 659 604 679L601 692Q598 697 598 701T601 710Q609 733 635 744Q653 732 668 718T697 690Q699 663 705 644T718
606Q725 589 730 573T738 534Q728 504 724 478T715 422L713 411Q695 380 678 348T649 291Q643 285 639 277T630 261Q628 258 625 251T618 241L594 250L588 219L572 215L560 201Q537 161 512 134T455 86T384 47T293 7Q273 10 259 10T230 12Q216 12 203 13T173 16Q169
25 162 29T149 33Q129 43 119 61T98 101Q93 113 88 125T74 148L94 154L68 184Q65 187 62 190T55 197V216Q51 298 51 367T70 490L72 495ZM215 890Q207 902 207 913T209 935T218 957T230 983Q238 987 248 997T259 1019Q264 1016 273 1021T285 1033Q296 1027 305 1018T324
999T342 983T362 973Q386 946 413 920T464 868Q468 854 478 847T497 832T508 813T497 781Q503 771 502 763T497 748T485 734T471 720Q447 721 421 735T371 767T325 805T289 838Q260 864 242 876T215 890Z" />
<glyph unicode="&#xda;" glyph-name="Uacute" horiz-adv-x="712" d="M72 495Q70 508 67 511Q74 529 77 546T83 580Q85 594 87 606T94 629Q111 633 119 643T133 662Q151 663 156 657T169 637Q174 626 183 614T210 594Q213 583 217 573T226 552Q235 531 243 509T252
466Q240 443 234 413T226 353T227 294T237 247L243 231L265 233Q301 242 330 253T384 281T432 317T480 366Q504 394 523 429T554 503T574 579T583 650Q602 659 604 679L601 692Q598 697 598 701T601 710Q609 733 635 744Q653 732 668 718T697 690Q699 663 705 644T718
606Q725 589 730 573T738 534Q728 504 724 478T715 422L713 411Q695 380 678 348T649 291Q643 285 639 277T630 261Q628 258 625 251T618 241L594 250L588 219L572 215L560 201Q537 161 512 134T455 86T384 47T293 7Q273 10 259 10T230 12Q216 12 203 13T173 16Q169
25 162 29T149 33Q129 43 119 61T98 101Q93 113 88 125T74 148L94 154L68 184Q65 187 62 190T55 197V216Q51 298 51 367T70 490L72 495ZM641 931Q633 929 615 917T567 879Q552 866 531 847T486 809T435 776T385 761Q378 768 371 775T360 789T354 804T359 822Q346
843 348 854T358 873T377 888T392 909Q415 934 442 960T494 1014Q504 1016 513 1023T532 1040T550 1058T571 1074Q573 1068 582 1063T597 1060Q598 1049 608 1039T626 1024Q632 1010 638 999T647 976T650 954T641 931Z" />
<glyph unicode="&#xdb;" glyph-name="Ucircumflex" horiz-adv-x="712" d="M72 495Q70 508 67 511Q74 529 77 546T83 580Q85 594 87 606T94 629Q111 633 119 643T133 662Q151 663 156 657T169 637Q174 626 183 614T210 594Q213 583 217 573T226 552Q235 531 243
509T252 466Q240 443 234 413T226 353T227 294T237 247L243 231L265 233Q301 242 330 253T384 281T432 317T480 366Q504 394 523 429T554 503T574 579T583 650Q602 659 604 679L601 692Q598 697 598 701T601 710Q609 733 635 744Q653 732 668 718T697 690Q699 663
705 644T718 606Q725 589 730 573T738 534Q728 504 724 478T715 422L713 411Q695 380 678 348T649 291Q643 285 639 277T630 261Q628 258 625 251T618 241L594 250L588 219L572 215L560 201Q537 161 512 134T455 86T384 47T293 7Q273 10 259 10T230 12Q216 12 203
13T173 16Q169 25 162 29T149 33Q129 43 119 61T98 101Q93 113 88 125T74 148L94 154L68 184Q65 187 62 190T55 197V216Q51 298 51 367T70 490L72 495ZM264 790Q263 800 255 809T241 822Q236 834 231 844T223 863T221 882T228 902Q236 904 250 915T288 948Q299
958 314 973T347 1004T384 1031T421 1048Q431 1050 435 1050Q455 1043 474 1031T511 1004T544 974T570 948Q593 926 607 915T630 902Q636 891 637 882T635 864T627 844T617 822Q611 818 603 809T594 790Q590 793 583 788T573 778Q564 783 557 791T542 808T527 822T511
830Q491 853 470 876T429 921Q410 900 389 877T347 830Q339 828 332 822T317 808T302 792T285 778Q283 783 276 788T264 790Z" />
<glyph unicode="&#xdc;" glyph-name="Udieresis" horiz-adv-x="712" d="M72 495Q70 508 67 511Q74 529 77 546T83 580Q85 594 87 606T94 629Q111 633 119 643T133 662Q151 663 156 657T169 637Q174 626 183 614T210 594Q213 583 217 573T226 552Q235 531 243 509T252
466Q240 443 234 413T226 353T227 294T237 247L243 231L265 233Q301 242 330 253T384 281T432 317T480 366Q504 394 523 429T554 503T574 579T583 650Q602 659 604 679L601 692Q598 697 598 701T601 710Q609 733 635 744Q653 732 668 718T697 690Q699 663 705 644T718
606Q725 589 730 573T738 534Q728 504 724 478T715 422L713 411Q695 380 678 348T649 291Q643 285 639 277T630 261Q628 258 625 251T618 241L594 250L588 219L572 215L560 201Q537 161 512 134T455 86T384 47T293 7Q273 10 259 10T230 12Q216 12 203 13T173 16Q169
25 162 29T149 33Q129 43 119 61T98 101Q93 113 88 125T74 148L94 154L68 184Q65 187 62 190T55 197V216Q51 298 51 367T70 490L72 495ZM660 899L661 888Q654 876 650 868T643 851Q632 840 626 838T615 833Q604 829 600 825L590 810L580 819L565 805Q554 814 549
818T540 826T528 832T504 843L490 848L494 861Q496 866 496 879T496 901Q497 917 496 931T501 956Q522 967 534 971Q544 970 553 969T571 967Q578 966 580 966T582 965T585 965T593 968L605 966Q612 963 616 958T626 947Q630 939 634 937L646 936L650 924Q655 914
656 910T660 899ZM361 938Q372 926 383 916T396 894Q392 878 390 872T384 859Q371 848 354 836Q348 831 346 830T344 829T343 827T339 819L329 812Q321 809 314 809T300 811Q297 811 293 811T286 812L278 804L266 809Q255 814 251 815T241 821L232 827Q228 842
226 850T219 867Q219 884 221 890T225 901Q231 912 230 917L226 935L241 936V957Q255 958 262 958T275 959T288 964T313 974L327 980L333 967Q335 963 344 954T361 938Z" />
<glyph unicode="&#xdd;" glyph-name="Yacute" horiz-adv-x="505" d="M149 -33Q61 -21 42 60L43 71Q47 83 52 98Q57 115 63 131T83 161Q86 170 94 188T123 244Q139 273 148 290T164 316Q154 334 136 351Q120 381 109 408T91 458Q90 482 83 507Q80 520 77 533T74
560Q70 567 67 578L69 590Q74 598 72 611T65 639Q62 652 60 666T58 695T65 722T88 744L98 751L108 745Q119 738 129 733T149 723Q161 717 173 711T199 696L209 689L208 678Q208 676 209 673T212 668L223 665L224 651V639Q224 630 225 627T229 619L234 606Q234 588
237 574T244 546Q249 532 252 518T253 486Q259 489 265 495Q267 497 269 499T275 503L345 598L343 610L368 634Q378 642 387 650T402 670L408 679Q453 739 524 753L541 757L546 741Q551 727 565 717T597 696L608 689Q614 677 614 671T613 661L618 648Q607 619 594
607T567 583Q556 574 547 565T533 545L525 535Q500 522 493 497L489 483H474Q473 483 469 479T457 457Q448 445 445 442T439 436Q437 431 436 427T432 417L426 409Q417 401 413 394T404 376Q400 367 395 358T381 339L383 328L375 321Q367 314 361 304T349 282Q343
270 336 258T318 236Q311 218 306 208T287 184Q275 136 230 81Q229 70 224 60T212 40Q210 36 208 32T204 25L201 14Q195 3 189 -4T176 -17Q173 -19 171 -22T166 -27L149 -33ZM581 993Q573 991 555 979T507 941Q492 928 471 909T426 871T375 838T325 823Q318 830
311 837T300 851T294 866T299 884Q286 905 288 916T298 935T317 950T332 971Q355 996 382 1022T434 1076Q444 1078 453 1085T472 1102T490 1120T511 1136Q513 1130 522 1125T537 1122Q538 1111 548 1101T566 1086Q572 1072 578 1061T587 1038T590 1016T581 993Z"
/>
<glyph unicode="&#xde;" glyph-name="Thorn" horiz-adv-x="697" d="M609 551Q637 536 656 515T685 469T699 419T702 370Q684 335 651 310T584 259Q577 259 573 261Q568 253 560 248T543 239T525 231T510 220Q485 216 466 209T428 194T391 178T347 167Q338 160
325 156T298 147T272 139T251 126Q245 131 234 130T214 126Q208 118 209 109T212 92Q217 56 207 35T179 5T137 -6T91 -5Q79 11 69 36T52 89T38 142T26 189Q32 204 33 222T36 259T37 299T40 337Q48 387 63 433T90 527Q92 538 88 547T86 565Q88 570 93 572T101 579Q105
593 103 601T107 622Q112 631 121 650T129 689Q140 696 149 705T168 723T190 737T221 743Q230 731 233 717T240 688T249 661T269 641Q270 633 270 624T270 604Q278 605 286 606T303 609Q366 607 432 599T554 578Q565 570 577 562T609 551ZM476 401Q475 410 479
415T489 425Q487 435 482 441T470 455Q421 462 368 462T260 460Q247 414 237 369T223 278Q260 287 293 298T348 328Q370 334 387 342T420 360T448 380T476 401Z" />
<glyph unicode="&#xdf;" glyph-name="germandbls" horiz-adv-x="954" d="M494 450Q496 454 497 457T501 465Q475 467 450 465T404 460Q395 469 383 469T357 465T330 457T304 455Q294 447 280 445T248 440Q247 435 250 434T251 427Q257 420 266 417T286 411T305
404T316 389Q331 389 342 382T360 365T370 344T374 323Q377 315 381 316T390 312Q393 299 405 286T424 256Q426 231 427 212T420 172Q405 135 379 106T319 55T247 16T173 -11Q169 -10 165 -11T163 -6Q155 -13 146 -15T125 -17T103 -15T81 -16Q74 -9 69 -3T60 14Q55
14 55 19T52 24Q58 34 58 35T55 38T50 40T49 45Q53 53 52 63T50 85T51 106T66 122Q100 118 130 124T188 143T239 169T288 194Q291 203 296 209T308 220T319 231T326 246Q327 253 323 254T318 262L307 265Q288 276 264 283T223 300Q212 294 203 297T178 303Q144
305 113 310T52 328Q50 333 47 337T36 339Q30 347 24 354T13 371Q15 383 16 391T10 408Q14 421 16 429T16 450Q23 471 38 486T72 511T111 529T149 541Q189 558 234 573T327 601T425 616T530 604Q533 594 539 585T551 567T563 550T569 532Q571 530 573 528T577 524Q605
535 627 541Q667 558 712 573T805 601T903 616T1008 604Q1011 594 1017 585T1030 567T1041 550T1047 532Q1057 523 1063 513T1065 485Q1055 477 1046 471T1025 459Q988 468 950 465T882 460Q873 469 861 469T835 465T808 457T782 455Q772 447 758 445T726 440Q725
435 728 434T729 427Q735 420 745 417T765 411T783 404T795 389Q809 389 820 382T838 365T849 344T852 323Q855 315 859 316T868 312Q871 299 883 286T902 256Q904 231 905 212T898 172Q884 135 857 106T797 55T725 16T651 -11Q648 -10 644 -11T641 -6Q633 -13
624 -15T603 -17T581 -15T559 -16Q552 -9 547 -3T538 14Q533 14 533 19T530 24Q537 34 536 35T533 38T529 40T528 45Q532 53 531 63T528 85T529 106T544 122Q578 118 608 124T666 143T718 169T767 194Q770 203 775 209T786 220T797 231T804 246Q805 253 801 254T796
262L786 265Q766 276 742 283T701 300Q691 294 681 297T657 303Q622 305 591 310T530 328Q528 333 525 337T514 339Q509 347 503 354T491 371Q493 383 494 391T488 408Q492 421 494 429T494 450Z" />
<glyph unicode="&#xe0;" glyph-name="agrave" horiz-adv-x="595" d="M529 84Q523 67 512 50T485 19T450 -4T410 -14Q397 -11 393 -8T383 -1Q380 1 378 2T373 5L361 10L365 23Q367 31 364 35T352 48Q349 51 346 54T341 60L324 79L351 86Q376 93 384 104T391 141Q371
145 358 142T330 135Q312 130 294 127T253 123Q245 123 238 123T223 125L213 127Q211 138 209 139T205 143Q200 148 195 156T192 178Q187 187 186 196Q180 184 177 171L173 161L163 159Q161 158 160 155T159 149L154 132Q152 130 150 129T146 125Q144 116 141 107T135
90Q130 77 127 65T124 40L120 29Q115 23 109 20T97 13Q95 11 92 10T86 7L83 -4L71 -6Q60 -8 56 -9T45 -10L35 -9Q24 0 18 5T4 16Q-5 28 -6 34T-8 45Q-10 51 -10 55T-13 61L-26 73L-15 82L-14 99Q6 150 28 197T75 293Q83 309 90 325T106 357Q105 360 105 364T107
373Q118 390 125 403T139 431Q147 448 155 464T177 497L193 504Q196 505 200 506T209 508L224 506Q252 519 273 542T316 599L326 613L339 605Q344 602 353 600T372 594Q390 590 406 585T432 570Q438 554 439 546T442 530Q445 513 447 496T451 458Q456 441 459 425T466
391Q471 367 476 345T489 302Q497 302 499 301Q504 303 509 304T522 306L533 307L537 297Q538 292 547 287Q560 286 566 282T577 272Q581 268 585 266L600 260L592 245Q582 227 564 211T522 183Q523 177 523 172T526 160Q529 143 531 125T531 88L529 84ZM240 257Q270
259 294 261T349 270Q342 300 334 332T317 397L311 387Q291 366 273 340T241 291Q235 282 229 273T218 255Q224 256 229 256T240 257ZM235 819Q227 831 227 842T229 864T238 886T250 912Q258 916 268 926T279 948Q284 945 293 950T305 962Q316 956 325 947T344
928T362 912T382 902Q406 875 433 849T484 797Q488 783 498 776T517 761T528 742T517 710Q523 700 522 692T517 677T505 663T491 649Q467 650 441 664T391 696T345 734T309 767Q280 793 262 805T235 819Z" />
<glyph unicode="&#xe1;" glyph-name="aacute" horiz-adv-x="595" d="M529 84Q523 67 512 50T485 19T450 -4T410 -14Q397 -11 393 -8T383 -1Q380 1 378 2T373 5L361 10L365 23Q367 31 364 35T352 48Q349 51 346 54T341 60L324 79L351 86Q376 93 384 104T391 141Q371
145 358 142T330 135Q312 130 294 127T253 123Q245 123 238 123T223 125L213 127Q211 138 209 139T205 143Q200 148 195 156T192 178Q187 187 186 196Q180 184 177 171L173 161L163 159Q161 158 160 155T159 149L154 132Q152 130 150 129T146 125Q144 116 141 107T135
90Q130 77 127 65T124 40L120 29Q115 23 109 20T97 13Q95 11 92 10T86 7L83 -4L71 -6Q60 -8 56 -9T45 -10L35 -9Q24 0 18 5T4 16Q-5 28 -6 34T-8 45Q-10 51 -10 55T-13 61L-26 73L-15 82L-14 99Q6 150 28 197T75 293Q83 309 90 325T106 357Q105 360 105 364T107
373Q118 390 125 403T139 431Q147 448 155 464T177 497L193 504Q196 505 200 506T209 508L224 506Q252 519 273 542T316 599L326 613L339 605Q344 602 353 600T372 594Q390 590 406 585T432 570Q438 554 439 546T442 530Q445 513 447 496T451 458Q456 441 459 425T466
391Q471 367 476 345T489 302Q497 302 499 301Q504 303 509 304T522 306L533 307L537 297Q538 292 547 287Q560 286 566 282T577 272Q581 268 585 266L600 260L592 245Q582 227 564 211T522 183Q523 177 523 172T526 160Q529 143 531 125T531 88L529 84ZM240 257Q270
259 294 261T349 270Q342 300 334 332T317 397L311 387Q291 366 273 340T241 291Q235 282 229 273T218 255Q224 256 229 256T240 257ZM519 829Q511 827 493 815T445 777Q430 764 409 745T364 707T313 674T263 659Q256 666 249 673T238 687T232 702T237 720Q224
741 226 752T236 771T255 786T270 807Q293 832 320 858T372 912Q382 914 391 921T410 938T428 956T449 972Q451 966 460 961T475 958Q476 947 486 937T504 922Q510 908 516 897T525 874T528 852T519 829Z" />
<glyph unicode="&#xe2;" glyph-name="acircumflex" horiz-adv-x="595" d="M529 84Q523 67 512 50T485 19T450 -4T410 -14Q397 -11 393 -8T383 -1Q380 1 378 2T373 5L361 10L365 23Q367 31 364 35T352 48Q349 51 346 54T341 60L324 79L351 86Q376 93 384 104T391
141Q371 145 358 142T330 135Q312 130 294 127T253 123Q245 123 238 123T223 125L213 127Q211 138 209 139T205 143Q200 148 195 156T192 178Q187 187 186 196Q180 184 177 171L173 161L163 159Q161 158 160 155T159 149L154 132Q152 130 150 129T146 125Q144 116
141 107T135 90Q130 77 127 65T124 40L120 29Q115 23 109 20T97 13Q95 11 92 10T86 7L83 -4L71 -6Q60 -8 56 -9T45 -10L35 -9Q24 0 18 5T4 16Q-5 28 -6 34T-8 45Q-10 51 -10 55T-13 61L-26 73L-15 82L-14 99Q6 150 28 197T75 293Q83 309 90 325T106 357Q105 360
105 364T107 373Q118 390 125 403T139 431Q147 448 155 464T177 497L193 504Q196 505 200 506T209 508L224 506Q252 519 273 542T316 599L326 613L339 605Q344 602 353 600T372 594Q390 590 406 585T432 570Q438 554 439 546T442 530Q445 513 447 496T451 458Q456
441 459 425T466 391Q471 367 476 345T489 302Q497 302 499 301Q504 303 509 304T522 306L533 307L537 297Q538 292 547 287Q560 286 566 282T577 272Q581 268 585 266L600 260L592 245Q582 227 564 211T522 183Q523 177 523 172T526 160Q529 143 531 125T531 88L529
84ZM240 257Q270 259 294 261T349 270Q342 300 334 332T317 397L311 387Q291 366 273 340T241 291Q235 282 229 273T218 255Q224 256 229 256T240 257ZM458 647Q457 657 449 666T435 679Q430 691 425 701T417 720T415 739T422 759Q430 761 444 772T482 805Q493
815 508 830T541 861T578 888T615 905Q625 907 629 907Q649 900 668 888T705 861T738 831T764 805Q787 783 801 772T824 759Q830 748 831 739T829 721T821 701T811 679Q805 675 797 666T788 647Q784 650 777 645T767 635Q758 640 751 648T736 665T721 679T705 687Q685
710 664 733T623 778Q604 757 583 734T541 687Q533 685 526 679T511 665T496 649T479 635Q477 640 470 645T458 647Z" />
<glyph unicode="&#xe3;" glyph-name="atilde" horiz-adv-x="595" d="M529 84Q523 67 512 50T485 19T450 -4T410 -14Q397 -11 393 -8T383 -1Q380 1 378 2T373 5L361 10L365 23Q367 31 364 35T352 48Q349 51 346 54T341 60L324 79L351 86Q376 93 384 104T391 141Q371
145 358 142T330 135Q312 130 294 127T253 123Q245 123 238 123T223 125L213 127Q211 138 209 139T205 143Q200 148 195 156T192 178Q187 187 186 196Q180 184 177 171L173 161L163 159Q161 158 160 155T159 149L154 132Q152 130 150 129T146 125Q144 116 141 107T135
90Q130 77 127 65T124 40L120 29Q115 23 109 20T97 13Q95 11 92 10T86 7L83 -4L71 -6Q60 -8 56 -9T45 -10L35 -9Q24 0 18 5T4 16Q-5 28 -6 34T-8 45Q-10 51 -10 55T-13 61L-26 73L-15 82L-14 99Q6 150 28 197T75 293Q83 309 90 325T106 357Q105 360 105 364T107
373Q118 390 125 403T139 431Q147 448 155 464T177 497L193 504Q196 505 200 506T209 508L224 506Q252 519 273 542T316 599L326 613L339 605Q344 602 353 600T372 594Q390 590 406 585T432 570Q438 554 439 546T442 530Q445 513 447 496T451 458Q456 441 459 425T466
391Q471 367 476 345T489 302Q497 302 499 301Q504 303 509 304T522 306L533 307L537 297Q538 292 547 287Q560 286 566 282T577 272Q581 268 585 266L600 260L592 245Q582 227 564 211T522 183Q523 177 523 172T526 160Q529 143 531 125T531 88L529 84ZM240 257Q270
259 294 261T349 270Q342 300 334 332T317 397L311 387Q291 366 273 340T241 291Q235 282 229 273T218 255Q224 256 229 256T240 257ZM866 855Q883 854 892 846T902 824Q900 812 895 804Q888 788 883 780T871 762Q862 748 854 735T834 708Q827 702 823 700Q814
692 804 686T783 674Q765 667 750 666T716 664H702Q691 665 680 666T660 669Q645 677 637 683T620 695Q611 701 605 708T594 722Q590 728 585 733T574 739Q569 738 565 733T555 723Q553 721 551 719T547 714Q541 695 523 683Q514 678 509 677T500 674L490 672L480
670L470 671Q455 666 445 666Q425 667 416 675T406 697Q408 709 413 717Q421 733 426 742T438 760Q446 773 454 786T474 813Q481 819 485 821Q494 829 504 835T525 847Q543 854 558 855T592 857H606Q629 855 648 852Q663 844 671 838T688 826Q697 820 703 813T714
799Q726 782 735 783Q740 783 744 787T753 798Q755 801 761 807Q767 826 785 838Q799 845 808 847L818 849L828 851H838Q850 855 863 855H866Z" />
<glyph unicode="&#xe4;" glyph-name="adieresis" horiz-adv-x="595" d="M529 84Q523 67 512 50T485 19T450 -4T410 -14Q397 -11 393 -8T383 -1Q380 1 378 2T373 5L361 10L365 23Q367 31 364 35T352 48Q349 51 346 54T341 60L324 79L351 86Q376 93 384 104T391
141Q371 145 358 142T330 135Q312 130 294 127T253 123Q245 123 238 123T223 125L213 127Q211 138 209 139T205 143Q200 148 195 156T192 178Q187 187 186 196Q180 184 177 171L173 161L163 159Q161 158 160 155T159 149L154 132Q152 130 150 129T146 125Q144 116
141 107T135 90Q130 77 127 65T124 40L120 29Q115 23 109 20T97 13Q95 11 92 10T86 7L83 -4L71 -6Q60 -8 56 -9T45 -10L35 -9Q24 0 18 5T4 16Q-5 28 -6 34T-8 45Q-10 51 -10 55T-13 61L-26 73L-15 82L-14 99Q6 150 28 197T75 293Q83 309 90 325T106 357Q105 360
105 364T107 373Q118 390 125 403T139 431Q147 448 155 464T177 497L193 504Q196 505 200 506T209 508L224 506Q252 519 273 542T316 599L326 613L339 605Q344 602 353 600T372 594Q390 590 406 585T432 570Q438 554 439 546T442 530Q445 513 447 496T451 458Q456
441 459 425T466 391Q471 367 476 345T489 302Q497 302 499 301Q504 303 509 304T522 306L533 307L537 297Q538 292 547 287Q560 286 566 282T577 272Q581 268 585 266L600 260L592 245Q582 227 564 211T522 183Q523 177 523 172T526 160Q529 143 531 125T531 88L529
84ZM240 257Q270 259 294 261T349 270Q342 300 334 332T317 397L311 387Q291 366 273 340T241 291Q235 282 229 273T218 255Q224 256 229 256T240 257ZM875 787L876 776Q869 764 865 756T858 739Q847 728 841 726T830 721Q819 717 815 713L805 698L795 707L780
693Q769 702 764 706T755 714T743 720T719 731L705 736L709 749Q711 754 711 767T711 789Q712 805 711 819T716 844Q737 855 749 859Q759 858 768 857T786 855Q793 854 795 854T797 853T800 853T808 856L820 854Q827 851 831 846T841 835Q845 827 849 825L861 824L865
812Q870 802 871 798T875 787ZM576 826Q587 814 598 804T611 782Q607 766 605 760T599 747Q586 736 569 724Q563 719 561 718T559 717T558 715T554 707L544 700Q536 697 529 697T515 699Q512 699 508 699T501 700L493 692L481 697Q470 702 466 703T456 709L447
715Q443 730 441 738T434 755Q434 772 436 778T440 789Q446 800 445 805L441 823L456 824V845Q470 846 477 846T490 847T503 852T528 862L542 868L548 855Q550 851 559 842T576 826Z" />
<glyph unicode="&#xe5;" glyph-name="aring" horiz-adv-x="595" d="M240 257Q270 259 294 261T349 270Q342 300 334 332T317 397L311 387Q291 366 273 340T241 291Q235 282 229 273T218 255L240 257ZM490 558Q485 552 479 551T465 547Q460 545 454 542T441 536Q445
513 447 496T451 458Q456 441 459 425T466 391Q471 367 476 345T489 302Q497 302 499 301Q504 303 509 304T522 306L533 307L537 297Q538 292 547 287Q560 286 566 282T577 272Q581 268 585 266L600 260L592 245Q582 227 564 211T522 183Q523 177 523 172T526 160Q529
143 531 125T531 88Q523 67 512 50T485 19T450 -4T410 -14Q397 -11 393 -8T383 -1Q380 1 378 2T373 5L361 10L365 23Q367 31 364 35T352 48Q349 51 346 54T341 60L324 79L351 86Q376 93 384 104T391 141Q371 145 358 142T330 135Q312 130 294 127T253 123Q245 123
238 123T223 125L213 127Q211 138 209 139T205 143Q200 148 195 156T192 178Q187 187 186 196Q180 184 177 171L173 161L163 159Q161 158 160 155T159 149L154 132Q152 130 150 129T146 125Q144 116 141 107T135 90Q130 77 127 65T124 40L120 29Q115 23 109 20T97
13Q95 11 92 10T86 7L83 -4L71 -6Q60 -8 56 -9T45 -10L35 -9Q24 0 18 5T4 16Q-5 28 -6 34T-8 45Q-10 51 -10 55T-13 61L-26 73L-15 82L-14 99Q6 150 28 197T75 293Q83 309 90 325T106 357Q105 360 105 364T107 373Q118 390 125 403T139 431Q147 448 155 464T177
497L193 504Q196 505 200 506T209 508L224 506Q240 510 252 521T276 545Q257 562 248 587Q244 615 250 638T267 682T293 719T321 752Q327 750 329 755T337 762Q340 770 347 773T358 785Q366 787 371 792T384 800Q393 810 397 815T408 828Q413 829 415 829T423 829Q428
836 431 839T441 847Q447 844 454 843T467 837Q467 832 470 829T476 824T481 819T485 812Q492 806 494 804T498 795Q496 790 495 785T488 777Q493 765 492 764Q503 744 513 723T535 681Q533 669 539 659T547 636Q549 618 545 607T532 588T513 572T492 555L490 558ZM426
653Q428 662 428 666Q424 672 421 679T414 692Q409 685 402 689Q397 684 392 680T381 671Q375 662 371 657T365 642Q372 637 382 639T400 641Q408 643 414 646T426 653Z" />
<glyph unicode="&#xe6;" glyph-name="ae" horiz-adv-x="971" d="M140 161L129 159L126 140L117 132Q115 130 113 129T107 125Q104 116 100 108T92 91Q85 77 80 65T73 40L68 29Q63 23 56 20T43 13Q40 11 36 10T30 7L26 -4L14 -6Q2 -8 -2 -9T-13 -10L-23 -9Q-32
0 -37 5T-51 16Q-57 28 -57 34T-58 46Q-59 51 -59 55T-61 61L-72 73L-60 82L-56 99Q-29 150 0 197T60 293Q71 309 80 325T101 358Q99 365 104 373Q118 390 127 403T144 431Q155 448 166 464T192 497L199 505L209 504Q212 506 216 507T226 508L240 506Q270 519 294
543T346 600L358 614L370 606Q374 603 382 601T401 595Q418 590 434 585T458 571Q461 554 461 547T462 531Q463 514 463 497T461 459Q463 442 464 425T466 391Q468 368 469 346T476 303Q481 303 487 303T496 302Q500 303 508 305Q516 321 524 337T539 374Q525 387
519 402T509 433T504 465T497 498Q507 514 521 523T553 539T590 549T632 558Q672 571 704 578T766 589T829 598T904 609Q915 601 921 601Q925 610 930 607T935 612Q946 595 961 584T996 564Q997 557 997 554T996 547T995 541T996 530Q976 496 948 484T889 466T823
454T757 428Q750 431 745 430T733 428T720 425T703 425Q697 419 688 417T669 411Q674 401 674 392T675 377Q710 373 752 377T837 382Q838 378 836 377T834 371Q842 366 848 359T862 344T876 332T894 328Q904 312 898 291Q881 280 865 269T832 249T795 234T752 229Q747
229 744 229T737 232Q729 227 715 229T692 226Q681 231 666 231T638 235Q622 213 609 189T586 138Q620 133 643 134T685 138T726 143T779 144Q800 155 827 158T878 170Q886 167 891 160T902 146T914 134T930 130Q934 126 935 121T938 110T941 102T950 99Q934 66
915 49T870 22T815 9T747 -3Q738 -5 732 -3T719 -1Q695 -5 663 -9T598 -13T535 -5T486 22Q480 27 478 34T470 48Q449 23 416 5T352 -14Q340 -11 336 -8T327 -1Q324 1 322 2T317 5L307 11L312 23Q316 31 314 36T303 49Q301 51 298 54T293 60L279 79L307 87Q333 93
343 104T355 141Q335 145 321 142T293 136Q274 131 256 128T214 124Q207 124 200 124T185 126L175 127Q174 138 173 140T169 144Q165 149 161 157T162 178Q158 186 158 197Q154 190 151 184T145 172L140 161ZM226 290Q211 273 198 256Q204 256 209 256T221 257Q250
259 275 261T331 270Q329 301 326 333T317 398L310 388Q288 367 266 341T226 292V290Z" />
<glyph unicode="&#xe7;" glyph-name="ccedilla" horiz-adv-x="526" d="M367 -137Q381 -149 387 -166T390 -206Q382 -224 370 -237T337 -264Q321 -271 306 -275T278 -285Q273 -283 269 -284T260 -283Q245 -290 227 -293T188 -290Q173 -292 158 -292T131 -288T110
-279T98 -263Q81 -253 76 -238T81 -208Q86 -206 88 -206T95 -201Q131 -202 169 -201T253 -191Q254 -187 258 -185T266 -181T275 -177T282 -171Q282 -168 280 -167T276 -164T272 -162T270 -156Q261 -157 249 -153T229 -143Q214 -142 208 -141T196 -138T185 -134T165
-127Q160 -121 155 -118T144 -111T136 -104T132 -91Q133 -74 133 -63T139 -32Q145 -25 156 -12T182 15Q166 19 152 23T124 32Q114 43 104 52T77 66Q53 85 38 112T14 171T2 234T0 297Q15 342 42 374T99 439Q112 445 118 451T132 463T147 474T161 488Q182 493 197
502T228 522T259 542T296 556Q304 565 315 570T337 581T359 593T376 609Q381 601 390 603T407 609Q412 610 415 607T422 601T427 598T432 602Q437 602 435 597T432 590Q440 591 445 587T463 581Q467 576 465 574T463 565Q493 556 501 537T502 496T477 457T438 433Q390
420 348 405T278 359Q254 352 236 341T201 315T170 285T139 254Q140 240 135 233T124 217Q126 202 131 191T142 168Q208 148 282 143T432 137Q439 127 448 119T466 101T479 80T481 51Q467 36 450 24T416 -2Q400 -3 377 -1T333 -8Q319 -7 305 -6T275 -3L244 -49Q247
-54 255 -55T265 -62Q284 -64 297 -72T321 -89T342 -109T365 -127Q365 -130 367 -131T367 -137Z" />
<glyph unicode="&#xe8;" glyph-name="egrave" horiz-adv-x="534" d="M558 563Q559 556 559 553T558 546T557 540T559 529Q538 495 511 483T451 465T386 453T319 427Q306 432 296 427T265 424Q259 418 250 416T232 410Q236 401 236 392T238 376Q273 373 315 377T399
382Q400 377 398 376T397 370Q404 365 411 358T425 343T439 332T457 328Q461 320 462 311T460 291Q444 280 428 269T395 248T358 234T314 229Q309 229 307 229T300 232Q292 227 278 229T255 226Q244 231 229 231T201 234Q185 213 172 189T149 138Q183 133 205 134T248
137T289 142T342 144Q362 155 389 158T440 170Q448 167 454 160T465 146T477 134T492 130Q496 126 497 121T500 110T503 102T512 99Q497 66 478 49T433 22T378 8T310 -4Q301 -6 295 -4T281 -1Q258 -6 226 -10T161 -13T98 -5T49 22Q41 29 39 38T25 53Q24 66 21 82T15
115T11 150T12 181Q15 196 24 208T31 234Q36 235 37 239T45 243Q51 261 58 277T72 308T87 338T102 373Q88 386 82 401T72 432T67 464T60 498Q70 513 84 522T116 538T153 548T195 557Q235 570 266 577T328 588T392 597T467 609Q476 600 484 600Q488 609 493 606T498
611Q508 594 523 583T558 563ZM133 819Q125 831 125 842T127 864T136 886T148 912Q156 916 166 926T177 948Q182 945 191 950T203 962Q214 956 223 947T242 928T260 912T280 902Q304 875 331 849T382 797Q386 783 396 776T415 761T426 742T415 710Q421 700 420
692T415 677T403 663T389 649Q365 650 339 664T289 696T243 734T207 767Q178 793 160 805T133 819Z" />
<glyph unicode="&#xe9;" glyph-name="eacute" horiz-adv-x="534" d="M558 563Q559 556 559 553T558 546T557 540T559 529Q538 495 511 483T451 465T386 453T319 427Q306 432 296 427T265 424Q259 418 250 416T232 410Q236 401 236 392T238 376Q273 373 315 377T399
382Q400 377 398 376T397 370Q404 365 411 358T425 343T439 332T457 328Q461 320 462 311T460 291Q444 280 428 269T395 248T358 234T314 229Q309 229 307 229T300 232Q292 227 278 229T255 226Q244 231 229 231T201 234Q185 213 172 189T149 138Q183 133 205 134T248
137T289 142T342 144Q362 155 389 158T440 170Q448 167 454 160T465 146T477 134T492 130Q496 126 497 121T500 110T503 102T512 99Q497 66 478 49T433 22T378 8T310 -4Q301 -6 295 -4T281 -1Q258 -6 226 -10T161 -13T98 -5T49 22Q41 29 39 38T25 53Q24 66 21 82T15
115T11 150T12 181Q15 196 24 208T31 234Q36 235 37 239T45 243Q51 261 58 277T72 308T87 338T102 373Q88 386 82 401T72 432T67 464T60 498Q70 513 84 522T116 538T153 548T195 557Q235 570 266 577T328 588T392 597T467 609Q476 600 484 600Q488 609 493 606T498
611Q508 594 523 583T558 563ZM509 819Q501 817 483 805T435 767Q420 754 399 735T354 697T303 664T253 649Q246 656 239 663T228 677T222 692T227 710Q214 731 216 742T226 761T245 776T260 797Q283 822 310 848T362 902Q372 904 381 911T400 928T418 946T439
962Q441 956 450 951T465 948Q466 937 476 927T494 912Q500 898 506 887T515 864T518 842T509 819Z" />
<glyph unicode="&#xea;" glyph-name="ecircumflex" horiz-adv-x="534" d="M558 563Q559 556 559 553T558 546T557 540T559 529Q538 495 511 483T451 465T386 453T319 427Q306 432 296 427T265 424Q259 418 250 416T232 410Q236 401 236 392T238 376Q273 373 315
377T399 382Q400 377 398 376T397 370Q404 365 411 358T425 343T439 332T457 328Q461 320 462 311T460 291Q444 280 428 269T395 248T358 234T314 229Q309 229 307 229T300 232Q292 227 278 229T255 226Q244 231 229 231T201 234Q185 213 172 189T149 138Q183 133
205 134T248 137T289 142T342 144Q362 155 389 158T440 170Q448 167 454 160T465 146T477 134T492 130Q496 126 497 121T500 110T503 102T512 99Q497 66 478 49T433 22T378 8T310 -4Q301 -6 295 -4T281 -1Q258 -6 226 -10T161 -13T98 -5T49 22Q41 29 39 38T25 53Q24
66 21 82T15 115T11 150T12 181Q15 196 24 208T31 234Q36 235 37 239T45 243Q51 261 58 277T72 308T87 338T102 373Q88 386 82 401T72 432T67 464T60 498Q70 513 84 522T116 538T153 548T195 557Q235 570 266 577T328 588T392 597T467 609Q476 600 484 600Q488
609 493 606T498 611Q508 594 523 583T558 563ZM468 657Q467 667 459 676T445 689Q440 701 435 711T427 730T425 749T432 769Q440 771 454 782T492 815Q503 825 518 840T551 871T588 898T625 915Q635 917 639 917Q659 910 678 898T715 871T748 841T774 815Q797
793 811 782T834 769Q840 758 841 749T839 731T831 711T821 689Q815 685 807 676T798 657Q794 660 787 655T777 645Q768 650 761 658T746 675T731 689T715 697Q695 720 674 743T633 788Q614 767 593 744T551 697Q543 695 536 689T521 675T506 659T489 645Q487 650
480 655T468 657Z" />
<glyph unicode="&#xeb;" glyph-name="edieresis" horiz-adv-x="534" d="M558 563Q559 556 559 553T558 546T557 540T559 529Q538 495 511 483T451 465T386 453T319 427Q306 432 296 427T265 424Q259 418 250 416T232 410Q236 401 236 392T238 376Q273 373 315
377T399 382Q400 377 398 376T397 370Q404 365 411 358T425 343T439 332T457 328Q461 320 462 311T460 291Q444 280 428 269T395 248T358 234T314 229Q309 229 307 229T300 232Q292 227 278 229T255 226Q244 231 229 231T201 234Q185 213 172 189T149 138Q183 133
205 134T248 137T289 142T342 144Q362 155 389 158T440 170Q448 167 454 160T465 146T477 134T492 130Q496 126 497 121T500 110T503 102T512 99Q497 66 478 49T433 22T378 8T310 -4Q301 -6 295 -4T281 -1Q258 -6 226 -10T161 -13T98 -5T49 22Q41 29 39 38T25 53Q24
66 21 82T15 115T11 150T12 181Q15 196 24 208T31 234Q36 235 37 239T45 243Q51 261 58 277T72 308T87 338T102 373Q88 386 82 401T72 432T67 464T60 498Q70 513 84 522T116 538T153 548T195 557Q235 570 266 577T328 588T392 597T467 609Q476 600 484 600Q488
609 493 606T498 611Q508 594 523 583T558 563ZM875 787L876 776Q869 764 865 756T858 739Q847 728 841 726T830 721Q819 717 815 713L805 698L795 707L780 693Q769 702 764 706T755 714T743 720T719 731L705 736L709 749Q711 754 711 767T711 789Q712 805 711
819T716 844Q737 855 749 859Q759 858 768 857T786 855Q793 854 795 854T797 853T800 853T808 856L820 854Q827 851 831 846T841 835Q845 827 849 825L861 824L865 812Q870 802 871 798T875 787ZM576 826Q587 814 598 804T611 782Q607 766 605 760T599 747Q586
736 569 724Q563 719 561 718T559 717T558 715T554 707L544 700Q536 697 529 697T515 699Q512 699 508 699T501 700L493 692L481 697Q470 702 466 703T456 709L447 715Q443 730 441 738T434 755Q434 772 436 778T440 789Q446 800 445 805L441 823L456 824V845Q470
846 477 846T490 847T503 852T528 862L542 868L548 855Q550 851 559 842T576 826Z" />
<glyph unicode="&#xec;" glyph-name="igrave" horiz-adv-x="328" d="M212 70Q217 40 209 23T185 -2T149 -12T111 -10Q101 4 93 25T78 68T66 113T56 152Q61 164 62 179T64 211T65 243T68 275Q75 317 88 355T110 434Q112 443 109 451T107 466Q108 470 113 471T119
478Q122 489 121 496T124 513Q129 521 136 536T142 569Q151 575 159 583T175 597T194 609T220 614Q228 604 230 592T235 568T243 546T260 529Q260 521 260 509T261 486T265 465T277 452Q259 404 244 357T218 263T206 167T212 70ZM92 829Q84 841 84 852T86 874T95
896T107 922Q115 926 125 936T136 958Q141 955 150 960T162 972Q173 966 182 957T201 938T219 922T239 912Q263 885 290 859T341 807Q345 793 355 786T374 771T385 752T374 720Q380 710 379 702T374 687T362 673T348 659Q324 660 298 674T248 706T202 744T166 777Q137
803 119 815T92 829Z" />
<glyph unicode="&#xed;" glyph-name="iacute" horiz-adv-x="328" d="M212 70Q217 40 209 23T185 -2T149 -12T111 -10Q101 4 93 25T78 68T66 113T56 152Q61 164 62 179T64 211T65 243T68 275Q75 317 88 355T110 434Q112 443 109 451T107 466Q108 470 113 471T119
478Q122 489 121 496T124 513Q129 521 136 536T142 569Q151 575 159 583T175 597T194 609T220 614Q228 604 230 592T235 568T243 546T260 529Q260 521 260 509T261 486T265 465T277 452Q259 404 244 357T218 263T206 167T212 70ZM530 839Q522 837 504 825T456 787Q441
774 420 755T375 717T324 684T274 669Q267 676 260 683T249 697T243 712T248 730Q235 751 237 762T247 781T266 796T281 817Q304 842 331 868T383 922Q393 924 402 931T421 948T439 966T460 982Q462 976 471 971T486 968Q487 957 497 947T515 932Q521 918 527 907T536
884T539 862T530 839Z" />
<glyph unicode="&#xee;" glyph-name="icircumflex" horiz-adv-x="328" d="M212 70Q217 40 209 23T185 -2T149 -12T111 -10Q101 4 93 25T78 68T66 113T56 152Q61 164 62 179T64 211T65 243T68 275Q75 317 88 355T110 434Q112 443 109 451T107 466Q108 470 113 471T119
478Q122 489 121 496T124 513Q129 521 136 536T142 569Q151 575 159 583T175 597T194 609T220 614Q228 604 230 592T235 568T243 546T260 529Q260 521 260 509T261 486T265 465T277 452Q259 404 244 357T218 263T206 167T212 70ZM89 667Q88 677 80 686T66 699Q61
711 56 721T48 740T46 759T53 779Q61 781 75 792T113 825Q124 835 139 850T172 881T209 908T246 925Q256 927 260 927Q280 920 299 908T336 881T369 851T395 825Q418 803 432 792T455 779Q461 768 462 759T460 741T452 721T442 699Q436 695 428 686T419 667Q415
670 408 665T398 655Q389 660 382 668T367 685T352 699T336 707Q316 730 295 753T254 798Q235 777 214 754T172 707Q164 705 157 699T142 685T127 669T110 655Q108 660 101 665T89 667Z" />
<glyph unicode="&#xef;" glyph-name="idieresis" horiz-adv-x="328" d="M212 70Q217 40 209 23T185 -2T149 -12T111 -10Q101 4 93 25T78 68T66 113T56 152Q61 164 62 179T64 211T65 243T68 275Q75 317 88 355T110 434Q112 443 109 451T107 466Q108 470 113 471T119
478Q122 489 121 496T124 513Q129 521 136 536T142 569Q151 575 159 583T175 597T194 609T220 614Q228 604 230 592T235 568T243 546T260 529Q260 521 260 509T261 486T265 465T277 452Q259 404 244 357T218 263T206 167T212 70ZM475 797L476 786Q469 774 465 766T458
749Q447 738 441 736T430 731Q419 727 415 723L405 708L395 717L380 703Q369 712 364 716T355 724T343 730T319 741L305 746L309 759Q311 764 311 777T311 799Q312 815 311 829T316 854Q337 865 349 869Q359 868 368 867T386 865Q393 864 395 864T397 863T400 863T408
866L420 864Q427 861 431 856T441 845Q445 837 449 835L461 834L465 822Q470 812 471 808T475 797ZM176 836Q187 824 198 814T211 792Q207 776 205 770T199 757Q186 746 169 734Q163 729 161 728T159 727T158 725T154 717L144 710Q136 707 129 707T115 709Q112
709 108 709T101 710L93 702L81 707Q70 712 66 713T56 719L47 725Q43 740 41 748T34 765Q34 782 36 788T40 799Q46 810 45 815L41 833L56 834V855Q70 856 77 856T90 857T103 862T128 872L142 878L148 865Q150 861 159 852T176 836Z" />
<glyph unicode="&#xf0;" glyph-name="eth" horiz-adv-x="554" d="M533 237Q503 184 457 148T357 85T243 34T127 -15Q103 -9 90 5T71 37T62 79T58 126Q61 137 66 144T71 166Q78 185 84 203T94 242Q64 235 47 230T24 219Q12 220 5 226T-6 240T-13 260T-20 283Q-18
291 -19 306T-26 329Q-21 330 -19 340T-18 356Q-8 360 3 361T26 364T47 368T65 378Q76 379 87 379T109 381Q107 404 103 427T93 471Q94 480 95 484T95 492Q93 500 100 500T114 500Q114 515 109 530T98 564Q105 579 107 593T116 620Q143 612 169 601T220 579T270
559T318 543Q354 517 392 492T461 435T514 365T539 272Q537 261 535 257T533 237ZM300 216Q321 224 341 233T380 254T412 281T435 317Q429 329 419 338T399 356T379 374T363 397Q350 399 340 404T321 415T301 425T276 431Q254 443 237 447T209 460Q203 462 199
458Q209 419 214 384Q224 383 235 382T256 378T274 365T285 340Q294 339 298 334T303 321T304 304T303 286Q289 271 266 264T216 253Q213 217 204 173Q215 174 223 177T240 185T258 192T281 197Q284 204 289 207T300 216Z" />
<glyph unicode="&#xf1;" glyph-name="ntilde" horiz-adv-x="578" d="M205 182Q196 180 192 172T185 154T178 138T167 130Q166 122 162 116T153 104T147 90T149 72Q141 66 139 55T135 34T126 17T104 11Q101 7 103 6T106 -1Q95 1 90 -2T76 -7Q57 -1 45 14T23 47T6
85T-9 118Q-6 129 -8 139T-15 157Q34 261 92 379T202 612Q225 603 247 592T288 565T320 531T337 487Q335 481 333 482T328 481Q332 476 332 474T333 470T332 465T335 455Q331 456 330 454T323 454Q327 443 326 436T321 424T316 412T317 395Q314 395 313 394T310
391T308 388T303 387Q306 365 305 343T304 299T304 252T311 201Q347 222 368 255T403 329T424 417T439 513Q448 522 453 535T462 562T470 591T480 618Q495 616 505 609T525 593T544 577T569 567Q581 550 591 534T604 500Q599 492 597 482T591 462T583 444T569 429Q566
403 562 382T553 339T545 296T543 246Q535 223 526 197T512 150Q496 137 487 119T468 83Q464 79 463 81T456 84Q457 80 456 78T454 75T452 70T453 62Q439 56 428 45T405 25T375 13T329 20Q288 50 257 89T205 182ZM680 876Q697 875 706 867T716 845Q714 833 709
825Q702 809 697 801T685 783Q676 769 668 756T648 729Q641 723 637 721Q628 713 618 707T597 695Q579 688 564 687T530 685H516Q505 686 494 687T474 690Q459 698 451 704T434 716Q425 722 419 729T408 743Q404 749 399 754T388 760Q383 759 379 754T369 744Q367
742 365 740T361 735Q355 716 337 704Q328 699 323 698T314 695L304 693L294 691L284 692Q269 687 259 687Q239 688 230 696T220 718Q222 730 227 738Q235 754 240 763T252 781Q260 794 268 807T288 834Q295 840 299 842Q308 850 318 856T339 868Q357 875 372 876T406
878H420Q443 876 462 873Q477 865 485 859T502 847Q511 841 517 834T528 820Q540 803 549 804Q554 804 558 808T567 819Q569 822 575 828Q581 847 599 859Q613 866 622 868L632 870L642 872H652Q664 876 677 876H680Z" />
<glyph unicode="&#xf2;" glyph-name="ograve" horiz-adv-x="644" d="M583 300Q582 288 585 277T592 256T601 234T607 212Q609 198 607 182T600 150T587 122T568 103Q554 85 534 75T497 51Q486 44 473 41T445 35Q434 29 419 23T388 11T356 3T328 1Q298 -10 270
-13T203 -9Q167 -14 137 -6T83 19T42 61T13 113Q5 170 17 216T51 302T103 375T159 441Q165 439 168 441T175 448T181 457T190 462Q197 477 210 484T232 506Q241 508 247 512T258 521T270 530T284 537V548Q302 556 310 566T331 592Q340 593 345 593T362 595Q370
609 376 616T396 631Q408 625 422 623T448 610Q449 600 454 595T465 585T476 575T484 561Q488 560 489 562T495 563Q498 549 502 545T510 527Q505 517 503 507T490 491Q489 484 494 484T500 478Q501 469 497 465Q521 426 540 383T583 300ZM458 205Q462 216 468
223T476 244Q471 252 470 256T469 271Q447 302 431 337T395 404Q393 400 388 396T377 398Q375 390 370 387T359 383T347 386T335 393Q306 370 277 348T225 297Q221 295 220 295T214 294Q206 275 195 260T172 228T153 194T144 152Q161 138 184 135T231 134T279 140T323
145Q365 155 395 171T458 205ZM276 808Q268 820 268 831T270 853T279 875T291 901Q299 905 309 915T320 937Q325 934 334 939T346 951Q357 945 366 936T385 917T403 901T423 891Q447 864 474 838T525 786Q529 772 539 765T558 750T569 731T558 699Q564 689 563
681T558 666T546 652T532 638Q508 639 482 653T432 685T386 723T350 756Q321 782 303 794T276 808Z" />
<glyph unicode="&#xf3;" glyph-name="oacute" horiz-adv-x="644" d="M583 300Q582 288 585 277T592 256T601 234T607 212Q609 198 607 182T600 150T587 122T568 103Q554 85 534 75T497 51Q486 44 473 41T445 35Q434 29 419 23T388 11T356 3T328 1Q298 -10 270
-13T203 -9Q167 -14 137 -6T83 19T42 61T13 113Q5 170 17 216T51 302T103 375T159 441Q165 439 168 441T175 448T181 457T190 462Q197 477 210 484T232 506Q241 508 247 512T258 521T270 530T284 537V548Q302 556 310 566T331 592Q340 593 345 593T362 595Q370
609 376 616T396 631Q408 625 422 623T448 610Q449 600 454 595T465 585T476 575T484 561Q488 560 489 562T495 563Q498 549 502 545T510 527Q505 517 503 507T490 491Q489 484 494 484T500 478Q501 469 497 465Q521 426 540 383T583 300ZM458 205Q462 216 468
223T476 244Q471 252 470 256T469 271Q447 302 431 337T395 404Q393 400 388 396T377 398Q375 390 370 387T359 383T347 386T335 393Q306 370 277 348T225 297Q221 295 220 295T214 294Q206 275 195 260T172 228T153 194T144 152Q161 138 184 135T231 134T279 140T323
145Q365 155 395 171T458 205ZM540 829Q532 827 514 815T466 777Q451 764 430 745T385 707T334 674T284 659Q277 666 270 673T259 687T253 702T258 720Q245 741 247 752T257 771T276 786T291 807Q314 832 341 858T393 912Q403 914 412 921T431 938T449 956T470
972Q472 966 481 961T496 958Q497 947 507 937T525 922Q531 908 537 897T546 874T549 852T540 829Z" />
<glyph unicode="&#xf4;" glyph-name="ocircumflex" horiz-adv-x="644" d="M583 300Q582 288 585 277T592 256T601 234T607 212Q609 198 607 182T600 150T587 122T568 103Q554 85 534 75T497 51Q486 44 473 41T445 35Q434 29 419 23T388 11T356 3T328 1Q298 -10
270 -13T203 -9Q167 -14 137 -6T83 19T42 61T13 113Q5 170 17 216T51 302T103 375T159 441Q165 439 168 441T175 448T181 457T190 462Q197 477 210 484T232 506Q241 508 247 512T258 521T270 530T284 537V548Q302 556 310 566T331 592Q340 593 345 593T362 595Q370
609 376 616T396 631Q408 625 422 623T448 610Q449 600 454 595T465 585T476 575T484 561Q488 560 489 562T495 563Q498 549 502 545T510 527Q505 517 503 507T490 491Q489 484 494 484T500 478Q501 469 497 465Q521 426 540 383T583 300ZM458 205Q462 216 468
223T476 244Q471 252 470 256T469 271Q447 302 431 337T395 404Q393 400 388 396T377 398Q375 390 370 387T359 383T347 386T335 393Q306 370 277 348T225 297Q221 295 220 295T214 294Q206 275 195 260T172 228T153 194T144 152Q161 138 184 135T231 134T279 140T323
145Q365 155 395 171T458 205ZM264 677Q263 687 255 696T241 709Q236 721 231 731T223 750T221 769T228 789Q236 791 250 802T288 835Q299 845 314 860T347 891T384 918T421 935Q431 937 435 937Q455 930 474 918T511 891T544 861T570 835Q593 813 607 802T630
789Q636 778 637 769T635 751T627 731T617 709Q611 705 603 696T594 677Q590 680 583 675T573 665Q564 670 557 678T542 695T527 709T511 717Q491 740 470 763T429 808Q410 787 389 764T347 717Q339 715 332 709T317 695T302 679T285 665Q283 670 276 675T264 677Z"
/>
<glyph unicode="&#xf5;" glyph-name="otilde" horiz-adv-x="644" d="M583 300Q582 288 585 277T592 256T601 234T607 212Q609 198 607 182T600 150T587 122T568 103Q554 85 534 75T497 51Q486 44 473 41T445 35Q434 29 419 23T388 11T356 3T328 1Q298 -10 270
-13T203 -9Q167 -14 137 -6T83 19T42 61T13 113Q5 170 17 216T51 302T103 375T159 441Q165 439 168 441T175 448T181 457T190 462Q197 477 210 484T232 506Q241 508 247 512T258 521T270 530T284 537V548Q302 556 310 566T331 592Q340 593 345 593T362 595Q370
609 376 616T396 631Q408 625 422 623T448 610Q449 600 454 595T465 585T476 575T484 561Q488 560 489 562T495 563Q498 549 502 545T510 527Q505 517 503 507T490 491Q489 484 494 484T500 478Q501 469 497 465Q521 426 540 383T583 300ZM458 205Q462 216 468
223T476 244Q471 252 470 256T469 271Q447 302 431 337T395 404Q393 400 388 396T377 398Q375 390 370 387T359 383T347 386T335 393Q306 370 277 348T225 297Q221 295 220 295T214 294Q206 275 195 260T172 228T153 194T144 152Q161 138 184 135T231 134T279 140T323
145Q365 155 395 171T458 205ZM680 865Q697 864 706 856T716 834Q714 822 709 814Q702 798 697 790T685 772Q676 758 668 745T648 718Q641 712 637 710Q628 702 618 696T597 684Q579 677 564 676T530 674H516Q505 675 494 676T474 679Q459 687 451 693T434 705Q425
711 419 718T408 732Q404 738 399 743T388 749Q383 748 379 743T369 733Q367 731 365 729T361 724Q355 705 337 693Q328 688 323 687T314 684L304 682L294 680L284 681Q269 676 259 676Q239 677 230 685T220 707Q222 719 227 727Q235 743 240 752T252 770Q260 783
268 796T288 823Q295 829 299 831Q308 839 318 845T339 857Q357 864 372 865T406 867H420Q443 865 462 862Q477 854 485 848T502 836Q511 830 517 823T528 809Q540 792 549 793Q554 793 558 797T567 808Q569 811 575 817Q581 836 599 848Q613 855 622 857L632 859L642
861H652Q664 865 677 865H680Z" />
</font>
</defs>
</svg>
